.
Авторизация | Регистрация
Хочешь лучшие торренты? Добавь свой email!
Добавить

Торрент скачать бесплатно

  • support: webmaster@btracker.org
» » Горы и камни / The Ottoman Lieutenant (2017) BDRip [1080p] ATV торрент скачать бесплатно


    Горы и камни / The Ottoman Lieutenant (2017) BDRip [1080p] ATV торрент скачать бесплатно

    Опубликовал: Админ | Дата: 30-05-2018, 05:00 | .torrent скачали: 0

    Горы и камни / The Ottoman Lieutenant (2017) BDRip [1080p] ATVПроизводство: Турция, США/Eastern Sunrise Films, Y Production
    Жанр: Драма, Военный
    Режиссер: Джозеф Рубин
    Продюсер: Стивен Браун, Гюнеш Челикджан, Юсуф Эсенкал
    Актеры: Михил Хаушман, Гера Хилмарсдоттир, Джош Хартнетт, Бен Кингсли, Халук Бильгинер, Аффиф Бен Бадра, Пол Баррет, Джесика Тернер, Питер Хоскин, Сельчук Ёнтем, Элишка Слански, Хасан Сай

    Описание

    История любви между идеалистичной медсестрой-американкой и турецким офицером на фоне Первой мировой войны.

    Возраст: 16+ (16+, зрителям достигшим 16 лет)
    Рейтинг MPAA: R (лицам до 17 лет обязательно присутствие взрослого)
    Дата мировой премьеры: 10 марта 2017
    Продолжительность: 01: 50: 35
    Качество видео: BDRip 1080p
    Контейнер: M4V
    Перевод: Дублированный (Студия Пифагор )
    Субтитры: Отсутствуют
    Видео: H.264, 1920x808, 2.40: 1, 8 380 kbps, 23.976 fps
    Аудио#1 : AAC, 2.0 ch, 296 kbps, 48.0 kHz Русский | DUB Студия Пифагор |
    Аудио#2 : AAC, 2.0 ch, 296 kbps, 48.0 kHz English | Original |
    Аудио#3 : AC3, DD 5.1, 6.0 ch, 384 kbps, 48.0 kHz Русский | DUB Студия Пифагор |
    Аудио#4 : AC3, DD 5.1, 6.0 ch, 640 kbps, 48.0 kHz English| Original |
    Код: выделить все

    Общее
    Полное имя : /Users/The.Ottoman.Lieutenant.2017.BDRip.1080p.m4v
    Формат : MPEG-4
    Идентификатор кодека : M4V (M4V /M4A /mp42/isom)
    Размер файла : 7, 72 Гбайт
    Продолжительность : 1 ч. 50 м.
    Режим общего битрейта : Переменный
    Общий поток : 9992 Кбит/сек
    Название фильма : Горы и камни
    Исполнитель : Joseph Ruben
    Композитор : Geoff Zanelli
    Режиссёр : Joseph Ruben
    Исполнитель : Michiel Huisman/Hera Hilmar/Josh Hartnett/Ben Kingsley/Haluk Bilginer/Affif Ben Badra/Paul Barrett/Selçuk Yöntem/Brian Caspe/Begum Burian/Jessica Turner/Peter Hosking/Eliska Slansky/Hasan Say/Deniz Kilic Flak/Aysen Sümercan/Murat Seven/Bree Welch/Joe Weintraub/Ephraim Goldin/Tzvi Shmilovich/Ara Woland/Ayse Eldek/Ali Riza Sahenk
    Сценарист : Jeff Stockwell
    Студия-производитель : Eastern Sunrise Films
    Жанр : мелодрама, драма, военный
    Тип содержимого : Short Film
    Дата записи : UTC 2017-03-10 00:00:00
    Дата кодирования : UTC 2018-05-29 05:01:22
    Дата пометки : UTC 2018-05-29 05:52:55
    Обложка : Yes
    LongDescription : История любви между идеалистичной медсестрой-американкой и турецким офицером на фоне Первой мировой войны.
    ContentRating : mpaa|R|400|
    Видео #1
    Идентификатор : 1
    Формат : AVC
    Формат/Информация : Advanced Video Codec
    Профиль формата :High@L4.1
    Настройки формата : CABAC/5 Ref Frames
    Параметр CABAC формата : Да
    Параметр ReFrames формата : 5 кадров
    Идентификатор кодека : avc1
    Идентификатор кодека/Информация : Advanced Video Coding
    Продолжительность : 1 ч. 50 м.
    Битрейт : 8380 Кбит/сек
    Ширина : 1920 пикселей
    Высота : 808 пикселей
    Соотношение сторон : 2, 40:1
    Режим частоты кадров : Переменный
    Частота кадров : 23, 976 (24000/1001) кадра/сек
    Минимальная частота кадров : 23, 810 кадра/сек
    Максимальная частота кадров : 24, 390 кадра/сек
    Цветовое пространство : YUV
    Субдискретизация насыщенности : 4:2:0
    Битовая глубина : 8 бит
    Тип развёртки : Прогрессивная
    Бит/(Пиксели*Кадры) : 0.225
    Размер потока : 6, 46 Гбайт (84%)
    Библиотека кодирования : x264 core 152 r2851 ba24899
    Настройки программы : cabac=1/ref=5/deblock=1:-3:-3/analyse=0x3:0x113/me=umh/subme=8/psy=1/psy_rd=1.00:0.25/mixed_ref=1/me_range=24/chroma_me=1/trellis=1/8x8dct=1/cqm=0/deadzone=21, 11/fast_pskip=1/chroma_qp_offset=-4/threads=25/lookahead_threads=4/sliced_threads=0/nr=0/decimate=1/interlaced=0/bluray_compat=0/constrained_intra=0/bframes=3/b_pyramid=2/b_adapt=1/b_bias=0/direct=3/weightb=1/open_gop=0/weightp=2/keyint=240/keyint_min=24/scenecut=40/intra_refresh=0/rc_lookahead=50/rc=2pass/mbtree=1/bitrate=8380/ratetol=1.0/qcomp=0.60/qpmin=0/qpmax=69/qpstep=4/cplxblur=20.0/qblur=0.5/ip_ratio=1.40/aq=1:0.75
    Язык : English
    Дата кодирования : UTC 2018-05-29 05:01:22
    Дата пометки : UTC 2018-05-29 05:52:23
    Menus : 6, 7
    Видео #2
    Идентификатор : 7
    Формат : JPEG
    Идентификатор кодека : jpeg
    Продолжительность : 1 ч. 50 м.
    Вид битрейта : Переменный
    Битрейт : 529 бит/сек
    Ширина : 640 пикселей
    Высота : 269 пикселей
    Соотношение сторон : 2, 40:1
    Режим частоты кадров : Переменный
    Частота кадров : 0, 002 кадр/сек
    Минимальная частота кадров : 0, 001 кадр/сек
    Максимальная частота кадров : 0, 003 кадр/сек
    Цветовое пространство : YUV
    Субдискретизация насыщенности : 4:2:0
    Битовая глубина : 8 бит
    Метод сжатия : С потерями
    Бит/(Пиксели*Кадры) : 1.536
    Размер потока : 420 Кбайт (0%)
    Язык : English
    Default : Нет
    Дата кодирования : UTC 2018-05-29 05:52:54
    Дата пометки : UTC 2018-05-29 05:52:54
    Menu For : 1
    ColorSpace_ICC : RGB
    Аудио #1
    Идентификатор : 2
    Формат : AAC
    Формат/Информация : Advanced Audio Codec
    Профиль формата : LC
    Идентификатор кодека : mp4a-40-2
    Продолжительность : 1 ч. 50 м.
    Вид битрейта : Переменный
    Битрейт : 296 Кбит/сек
    Максимальный битрейт : 499 Кбит/сек
    Каналы : 2 канала
    Расположение каналов : Front: L R
    Частота : 48, 0 КГц
    Частота кадров : 46, 875 кадров/сек (1024 SPF)
    Метод сжатия : С потерями
    Размер потока : 234 Мбайт (3%)
    Язык : Russian
    Default : Да
    Alternate group : 1
    Дата кодирования : UTC 2018-05-29 05:01:22
    Дата пометки : UTC 2018-05-29 05:52:23
    Fallback From : 4
    tagc : public.main-program-content
    Аудио #2
    Идентификатор : 3
    Формат : AAC
    Формат/Информация : Advanced Audio Codec
    Профиль формата : LC
    Идентификатор кодека : mp4a-40-2
    Продолжительность : 1 ч. 50 м.
    Вид битрейта : Переменный
    Битрейт : 296 Кбит/сек
    Максимальный битрейт : 484 Кбит/сек
    Каналы : 2 канала
    Расположение каналов : Front: L R
    Частота : 48, 0 КГц
    Частота кадров : 46, 875 кадров/сек (1024 SPF)
    Метод сжатия : С потерями
    Размер потока : 234 Мбайт (3%)
    Язык : English
    Default : Нет
    Alternate group : 1
    Дата кодирования : UTC 2018-05-29 05:01:22
    Дата пометки : UTC 2018-05-29 05:52:23
    Fallback From : 5
    tagc : public.main-program-content
    Аудио #3
    Идентификатор : 4
    Формат : AC-3
    Формат/Информация : Audio Coding 3
    Идентификатор кодека : ac-3
    Продолжительность : 1 ч. 50 м.
    Вид битрейта : Постоянный
    Битрейт : 384 Кбит/сек
    Каналы : 6 каналов
    Расположение каналов : Front: L C R, Side: L R, LFE
    Частота : 48, 0 КГц
    Частота кадров : 31, 250 кадров/сек (1536 SPF)
    Битовая глубина : 16 бит
    Метод сжатия : С потерями
    Размер потока : 304 Мбайт (4%)
    Язык : Russian
    Service kind : Complete Main
    Default : Inherited From: 2
    Alternate group : 1
    Дата кодирования : UTC 2018-05-29 05:01:22
    Дата пометки : UTC 2018-05-29 05:52:23
    Fallback To : 2
    tagc : public.main-program-content
    Аудио #4
    Идентификатор : 5
    Формат : AC-3
    Формат/Информация : Audio Coding 3
    Идентификатор кодека : ac-3
    Продолжительность : 1 ч. 50 м.
    Вид битрейта : Постоянный
    Битрейт : 640 Кбит/сек
    Каналы : 6 каналов
    Расположение каналов : Front: L C R, Side: L R, LFE
    Частота : 48, 0 КГц
    Частота кадров : 31, 250 кадров/сек (1536 SPF)
    Битовая глубина : 16 бит
    Метод сжатия : С потерями
    Размер потока : 506 Мбайт (6%)
    Язык : English
    Service kind : Complete Main
    Default : Нет
    Alternate group : 1
    Дата кодирования : UTC 2018-05-29 05:01:22
    Дата пометки : UTC 2018-05-29 05:52:23
    Fallback To : 3
    tagc : public.main-program-content
    Меню
    Идентификатор : 6
    Идентификатор кодека : text
    Продолжительность : 1 ч. 50 м.
    Язык : English
    Дата кодирования : UTC 2018-05-29 05:52:24
    Дата пометки : UTC 2018-05-29 05:52:24
    Вид битрейта : CBR
    Menu For : 1
    00:00:00.000 : 00:00:00.000
    00:09:08.214 : 00:09:08.214
    00:18:02.999 : 00:18:02.999
    00:23:44.423 : 00:23:44.423
    00:32:11.429 : 00:32:11.429
    00:44:42.597 : 00:44:42.597
    00:52:37.321 : 00:52:37.321
    00:59:14.259 : 00:59:14.259
    01:08:23.683 : 01:08:23.683
    01:18:09.727 : 01:18:09.727
    01:26:48.912 : 01:26:48.912
    01:34:48.850 : 01:34:48.850
    01:43:37.211 : 01:43:37.211



    Горы и камни/The Ottoman Lieutenant (2017) BDRip [1080p] ATV
    Рейтинг →
     (голосов: 1, оценка 4/5, голосовать можно 1 раз )

    Другие торренты по теме:

  • Горы и камни / The Ottoman Lieutenant (2017) BDRip [H.264 / 1080p] [EN / EN Sub]
  • Горы и камни / The Ottoman Lieutenant (2017) BDRip [H.264 / 720p] [MVO] [AD]
  • Горы и камни / The Ottoman Lieutenant (2017) HDRip [MVO] [AD]
  • Горы и камни / The Ottoman Lieutenant (2017) BDRemux [H.264 / 1080p] [EN / EN, Fr, Sp Sub]
  • Горы и камни / The Ottoman Lieutenant (2017) BDRip [H.264 / 1080p]
  • Горы и камни / The Ottoman Lieutenant (2017) BDRemux [H.264 / 1080p]
  • Горы и камни / The Ottoman Lieutenant (2017) BDRip
  • Горы и камни / The Ottoman Lieutenant (2017) BDRip [H.264]


    • Комментарии (0):

      Информация

      Информация

        Посетители, находящиеся в группе Гости, не могут оставлять комментарии в данной новости.

        ↓ Меню




        ↓ Опрос

        Вы добавили сайт в закладки?
        Да
        Нет


        Top 10 за месяц (Программы)