.
Авторизация | Регистрация
Хочешь лучшие торренты? Добавь свой email!
Добавить

Торрент скачать бесплатно

  • support: webmaster@btracker.org
» » Игра / The Game (1997) BDRip [1080p] ATV торрент скачать бесплатно


    Игра / The Game (1997) BDRip [1080p] ATV торрент скачать бесплатно

    Опубликовал: Админ | Дата: 30-05-2018, 05:00 | .torrent скачали: 0

    Игра / The Game (1997) BDRip [1080p] ATVПроизводство: США/AB Producoes, Lda., PolyGram Filmed Entertainment, Propaganda Films
    Жанр: Триллер, Драма, Детектив, Приключения
    Режиссер: Дэвид Финчер
    Продюсер: Сиан Чаффин, Стив Голин, Джон Бренкето
    Актеры: Майкл Дуглас, Шон Пенн, Дебора Кара Ангер, Джеймс Ребхорн, Питер Донат, Кэррол Бейкер, Анна Катарина, Армин Мюллер-Шталь, Чарльз Мартине, Юдзи Окумото

    Описание

    Николас Ван Ортон — само воплощение успеха. Он преуспевает, он невозмутим и спокоен, привык держать любую ситуацию под контролем. На день рождения Николас получает необычный подарок — билет для участия в Игре.
    Ему обещают, что игра вернет яркие чувства, позволит ощутить вкус и остроту жизни. Вступив в игру, Николас начинает осознавать, что это игра всерьез, игра не на жизнь, а на смерть.

    Возраст: 16+ (зрителям достигшим 16 лет)
    Рейтинг MPAA: R (лицам до 17 лет обязательно присутствие взрослого)
    Дата мировой премьеры: 3 сентября 1997
    Дата российской премьеры: Январь 1998, Союз
    Продолжительность: 02: 08: 48
    Качество видео: BDRip 1080p
    Контейнер: M4V
    Перевод: Дублированный, Многоголосый (профессиональный, закадровый), Авторский (одноголосый закадровый)
    Субтитры: Русские (вшитые, отключаемые), Английские (вшитые, отключаемые)
    Видео: H.264, 1920x800, 2.40: 1, 11 400 kbps, 23.976 fps
    Аудио#1 : AAC, 2.0 ch, 296 kbps, 48.0 kHz Русский | DUB DVD-Group/ремастер Позитив-Мультимедиа |
    Аудио#2 : AAC, 2.0 ch, 296 kbps, 48.0 kHz Русский | MVO Позитив-Мультимедиа, Blu-ray CEE |
    Аудио#3 : AAC, 2.0 ch, 296 kbps, 48.0 kHz Русский | AVO А. Гаврилов |
    Аудио#4 : AAC, 2.0 ch, 296 kbps, 48.0 kHz Русский | AVO Ю. Живов |
    Аудио#5 : AAC, 2.0 ch, 296 kbps, 48.0 kHz English | Original |
    Аудио#6 : AC3, DD 5.1, 6.0 ch, 384 kbps, 48.0 kHz Русский | DUB DVD-Group/ремастер Позитив-Мультимедиа |
    Аудио#7 : AC3, DD 5.1, 6.0 ch, 640 kbps, 48.0 kHz Русский | MVO Позитив-Мультимедиа, Blu-ray CEE |
    Аудио#8 : AC3, DD 5.1, 6.0 ch, 640 kbps, 48.0 kHz Русский | AVO А. Гаврилов |
    Аудио#9 : AC3, DD 5.1, 6.0 ch, 640 kbps, 48.0 kHz Русский | AVO Ю. Живов |
    Аудио#10 : AC3, DD 5.1, 6.0 ch, 640 kbps, 48.0 kHz English| Original |
    Код: выделить все

    Общее
    Полное имя : /Users/The.Game.1997.BDRip.1080p.m4v
    Формат : MPEG-4
    Идентификатор кодека : M4V (M4V /M4A /mp42/isom)
    Размер файла : 14, 3 Гбайт
    Продолжительность : 2 ч. 8 м.
    Режим общего битрейта : Переменный
    Общий поток : 15, 9 Мбит/сек
    Название фильма : Игра (1997)
    Исполнитель : David Fincher
    Режиссёр : David Fincher
    Исполнитель : Michael Douglas/Sean Penn/James Rebhorn/Deborah Kara Unger/Peter Donat/Carroll Baker/Armin Mueller-Stahl
    Продюсер : Steve Golin/Ceán Chaffin
    Жанр : Драма
    Тип содержимого : Short Film
    Дата записи : UTC 1997-09-12 07:00:00
    Дата кодирования : UTC 2018-05-29 08:13:08
    Дата пометки : UTC 2018-05-29 09:57:58
    Авторское право : © 1997 Universal Studios.
    Обложка : Yes
    LongDescription : Николас Ван Ортон (Майкл Дуглас) – преуспевающий финансист, привыкший контролировать все детали оборота своих денежных вкладов и взаимоотношений с людьми. Однако в его строго упорядоченной жизни происходят резкие изменения, когда брат Николаса Конрад (Шон Пенн) преподносит ему неожиданный подарок ко дню рождения. Последствия воистину разрушительны. Разработано под каждого индивидуального игрока. Воспринимайте ее как большие каникулы, но если вы ее не начнете, она сама придет к вам.... В этой Игре нет правил.
    AppleStoreCountry : Russia
    AppleStoreCatalogID : 697723425
    ContentRating : ru-movie|18+|400|
    Видео #1
    Идентификатор : 1
    Формат : AVC
    Формат/Информация : Advanced Video Codec
    Профиль формата :High@L4.1
    Настройки формата : CABAC/4 Ref Frames
    Параметр CABAC формата : Да
    Параметр ReFrames формата : 4 кадра
    Идентификатор кодека : avc1
    Идентификатор кодека/Информация : Advanced Video Coding
    Продолжительность : 2 ч. 8 м.
    Битрейт : 11, 4 Мбит/сек
    Ширина : 1920 пикселей
    Высота : 800 пикселей
    Соотношение сторон : 2, 40:1
    Режим частоты кадров : Переменный
    Частота кадров : 23, 976 кадра/сек
    Минимальная частота кадров : 23, 810 кадра/сек
    Максимальная частота кадров : 24, 390 кадра/сек
    Цветовое пространство : YUV
    Субдискретизация насыщенности : 4:2:0
    Битовая глубина : 8 бит
    Тип развёртки : Прогрессивная
    Бит/(Пиксели*Кадры) : 0.310
    Размер потока : 10, 3 Гбайт (72%)
    Библиотека кодирования : x264 core 125 r2200 999b753
    Настройки программы : cabac=1/ref=4/deblock=1:-3:-3/analyse=0x3:0x113/me=umh/subme=10/psy=1/psy_rd=1.10:0.00/mixed_ref=1/me_range=32/chroma_me=1/trellis=2/8x8dct=1/cqm=0/deadzone=21, 11/fast_pskip=0/chroma_qp_offset=-4/threads=12/lookahead_threads=2/sliced_threads=0/nr=0/decimate=0/interlaced=0/bluray_compat=0/constrained_intra=0/bframes=10/b_pyramid=2/b_adapt=2/b_bias=0/direct=3/weightb=1/open_gop=0/weightp=2/keyint=250/keyint_min=23/scenecut=40/intra_refresh=0/rc_lookahead=48/rc=2pass/mbtree=1/bitrate=11434/ratetol=1.0/qcomp=0.60/qpmin=0/qpmax=69/qpstep=4/cplxblur=20.0/qblur=0.5/ip_ratio=1.40/aq=1:0.80
    Язык : English
    Дата кодирования : UTC 2018-05-29 08:13:08
    Дата пометки : UTC 2018-05-29 09:56:54
    Menus : 15, 16
    Видео #2
    Идентификатор : 16
    Формат : JPEG
    Идентификатор кодека : jpeg
    Продолжительность : 2 ч. 8 м.
    Вид битрейта : Переменный
    Битрейт : 1037 бит/сек
    Ширина : 640 пикселей
    Высота : 266 пикселей
    Соотношение сторон : 2, 40:1
    Режим частоты кадров : Переменный
    Частота кадров : 0, 004 кадр/сек
    Минимальная частота кадров : 0, 002 кадр/сек
    Максимальная частота кадров : 0, 015 кадр/сек
    Цветовое пространство : YUV
    Субдискретизация насыщенности : 4:2:0
    Битовая глубина : 8 бит
    Метод сжатия : С потерями
    Бит/(Пиксели*Кадры) : 1.523
    Размер потока : 918 Кбайт (0%)
    Язык : English
    Default : Нет
    Дата кодирования : UTC 2018-05-29 09:57:56
    Дата пометки : UTC 2018-05-29 09:57:56
    Menu For : 1
    ColorSpace_ICC : RGB
    Аудио #1
    Идентификатор : 2
    Формат : AAC
    Формат/Информация : Advanced Audio Codec
    Профиль формата : LC
    Идентификатор кодека : mp4a-40-2
    Продолжительность : 2 ч. 8 м.
    Вид битрейта : Переменный
    Битрейт : 296 Кбит/сек
    Максимальный битрейт : 496 Кбит/сек
    Каналы : 2 канала
    Расположение каналов : Front: L R
    Частота : 48, 0 КГц
    Частота кадров : 46, 875 кадров/сек (1024 SPF)
    Метод сжатия : С потерями
    Размер потока : 273 Мбайт (2%)
    Язык : Russian
    Default : Да
    Alternate group : 1
    Дата кодирования : UTC 2018-05-29 08:13:08
    Дата пометки : UTC 2018-05-29 09:56:54
    Fallback From : 7
    tagc : public.main-program-content
    Аудио #2
    Идентификатор : 3
    Формат : AAC
    Формат/Информация : Advanced Audio Codec
    Профиль формата : LC
    Идентификатор кодека : mp4a-40-2
    Продолжительность : 2 ч. 8 м.
    Вид битрейта : Переменный
    Битрейт : 296 Кбит/сек
    Максимальный битрейт : 500 Кбит/сек
    Каналы : 2 канала
    Расположение каналов : Front: L R
    Частота : 48, 0 КГц
    Частота кадров : 46, 875 кадров/сек (1024 SPF)
    Метод сжатия : С потерями
    Размер потока : 273 Мбайт (2%)
    Язык : Russian
    Default : Нет
    Alternate group : 1
    Дата кодирования : UTC 2018-05-29 08:13:08
    Дата пометки : UTC 2018-05-29 09:56:54
    Fallback From : 8
    tagc : public.main-program-content
    Аудио #3
    Идентификатор : 4
    Формат : AAC
    Формат/Информация : Advanced Audio Codec
    Профиль формата : LC
    Идентификатор кодека : mp4a-40-2
    Продолжительность : 2 ч. 8 м.
    Вид битрейта : Переменный
    Битрейт : 296 Кбит/сек
    Максимальный битрейт : 495 Кбит/сек
    Каналы : 2 канала
    Расположение каналов : Front: L R
    Частота : 48, 0 КГц
    Частота кадров : 46, 875 кадров/сек (1024 SPF)
    Метод сжатия : С потерями
    Размер потока : 273 Мбайт (2%)
    Язык : Russian
    Default : Нет
    Alternate group : 1
    Дата кодирования : UTC 2018-05-29 08:13:08
    Дата пометки : UTC 2018-05-29 09:56:54
    Fallback From : 9
    tagc : public.auxiliary-content
    Аудио #4
    Идентификатор : 5
    Формат : AAC
    Формат/Информация : Advanced Audio Codec
    Профиль формата : LC
    Идентификатор кодека : mp4a-40-2
    Продолжительность : 2 ч. 8 м.
    Вид битрейта : Переменный
    Битрейт : 296 Кбит/сек
    Максимальный битрейт : 495 Кбит/сек
    Каналы : 2 канала
    Расположение каналов : Front: L R
    Частота : 48, 0 КГц
    Частота кадров : 46, 875 кадров/сек (1024 SPF)
    Метод сжатия : С потерями
    Размер потока : 273 Мбайт (2%)
    Язык : Russian
    Default : Нет
    Alternate group : 1
    Дата кодирования : UTC 2018-05-29 08:13:08
    Дата пометки : UTC 2018-05-29 09:56:54
    Fallback From : 10
    tagc : public.auxiliary-content
    Аудио #5
    Идентификатор : 6
    Формат : AAC
    Формат/Информация : Advanced Audio Codec
    Профиль формата : LC
    Идентификатор кодека : mp4a-40-2
    Продолжительность : 2 ч. 8 м.
    Вид битрейта : Переменный
    Битрейт : 296 Кбит/сек
    Максимальный битрейт : 499 Кбит/сек
    Каналы : 2 канала
    Расположение каналов : Front: L R
    Частота : 48, 0 КГц
    Частота кадров : 46, 875 кадров/сек (1024 SPF)
    Метод сжатия : С потерями
    Размер потока : 273 Мбайт (2%)
    Язык : English
    Default : Нет
    Alternate group : 1
    Дата кодирования : UTC 2018-05-29 08:13:08
    Дата пометки : UTC 2018-05-29 09:56:54
    Fallback From : 11
    tagc : public.main-program-content
    Аудио #6
    Идентификатор : 7
    Формат : AC-3
    Формат/Информация : Audio Coding 3
    Идентификатор кодека : ac-3
    Продолжительность : 2 ч. 8 м.
    Вид битрейта : Постоянный
    Битрейт : 384 Кбит/сек
    Каналы : 6 каналов
    Расположение каналов : Front: L C R, Side: L R, LFE
    Частота : 48, 0 КГц
    Частота кадров : 31, 250 кадров/сек (1536 SPF)
    Битовая глубина : 16 бит
    Метод сжатия : С потерями
    Размер потока : 354 Мбайт (2%)
    Язык : Russian
    Service kind : Complete Main
    Default : Inherited From: 2
    Alternate group : 1
    Дата кодирования : UTC 2018-05-29 08:13:08
    Дата пометки : UTC 2018-05-29 09:56:54
    Fallback To : 2
    tagc : public.main-program-content
    Аудио #7
    Идентификатор : 8
    Формат : AC-3
    Формат/Информация : Audio Coding 3
    Идентификатор кодека : ac-3
    Продолжительность : 2 ч. 8 м.
    Вид битрейта : Постоянный
    Битрейт : 640 Кбит/сек
    Каналы : 6 каналов
    Расположение каналов : Front: L C R, Side: L R, LFE
    Частота : 48, 0 КГц
    Частота кадров : 31, 250 кадров/сек (1536 SPF)
    Битовая глубина : 16 бит
    Метод сжатия : С потерями
    Размер потока : 590 Мбайт (4%)
    Язык : Russian
    Service kind : Complete Main
    Default : Нет
    Alternate group : 1
    Дата кодирования : UTC 2018-05-29 08:13:08
    Дата пометки : UTC 2018-05-29 09:56:54
    Fallback To : 3
    tagc : public.main-program-content
    Аудио #8
    Идентификатор : 9
    Формат : AC-3
    Формат/Информация : Audio Coding 3
    Идентификатор кодека : ac-3
    Продолжительность : 2 ч. 8 м.
    Вид битрейта : Постоянный
    Битрейт : 640 Кбит/сек
    Каналы : 6 каналов
    Расположение каналов : Front: L C R, Side: L R, LFE
    Частота : 48, 0 КГц
    Частота кадров : 31, 250 кадров/сек (1536 SPF)
    Битовая глубина : 16 бит
    Метод сжатия : С потерями
    Размер потока : 590 Мбайт (4%)
    Язык : Russian
    Service kind : Complete Main
    Default : Нет
    Alternate group : 1
    Дата кодирования : UTC 2018-05-29 08:13:08
    Дата пометки : UTC 2018-05-29 09:56:54
    Fallback To : 4
    tagc : public.auxiliary-content
    Аудио #9
    Идентификатор : 10
    Формат : AC-3
    Формат/Информация : Audio Coding 3
    Идентификатор кодека : ac-3
    Продолжительность : 2 ч. 8 м.
    Вид битрейта : Постоянный
    Битрейт : 640 Кбит/сек
    Каналы : 6 каналов
    Расположение каналов : Front: L C R, Side: L R, LFE
    Частота : 48, 0 КГц
    Частота кадров : 31, 250 кадров/сек (1536 SPF)
    Битовая глубина : 16 бит
    Метод сжатия : С потерями
    Размер потока : 590 Мбайт (4%)
    Язык : Russian
    Service kind : Complete Main
    Default : Нет
    Alternate group : 1
    Дата кодирования : UTC 2018-05-29 08:13:08
    Дата пометки : UTC 2018-05-29 09:56:54
    Fallback To : 5
    tagc : public.auxiliary-content
    Аудио #10
    Идентификатор : 11
    Формат : AC-3
    Формат/Информация : Audio Coding 3
    Идентификатор кодека : ac-3
    Продолжительность : 2 ч. 8 м.
    Вид битрейта : Постоянный
    Битрейт : 640 Кбит/сек
    Каналы : 6 каналов
    Расположение каналов : Front: L C R, Side: L R, LFE
    Частота : 48, 0 КГц
    Частота кадров : 31, 250 кадров/сек (1536 SPF)
    Битовая глубина : 16 бит
    Метод сжатия : С потерями
    Размер потока : 590 Мбайт (4%)
    Язык : English
    Service kind : Complete Main
    Default : Нет
    Alternate group : 1
    Дата кодирования : UTC 2018-05-29 08:13:08
    Дата пометки : UTC 2018-05-29 09:56:54
    Fallback To : 6
    tagc : public.main-program-content
    Текст #1
    Идентификатор : 12
    Формат : Timed Text
    Режим смешивания : sbtl
    Идентификатор кодека : tx3g
    Продолжительность : 2 ч. 3 м.
    Вид битрейта : Переменный
    Битрейт : 71 бит/сек
    Размер потока : 64, 5 Кбайт (0%)
    Язык : Russian
    Default : Да
    Forced : Нет
    Alternate group : 2
    Дата кодирования : UTC 2018-05-29 08:13:08
    Дата пометки : UTC 2018-05-29 09:56:54
    tagc : public.main-program-content
    Текст #2
    Идентификатор : 13
    Формат : Timed Text
    Режим смешивания : sbtl
    Идентификатор кодека : tx3g
    Продолжительность : 2 ч. 3 м.
    Вид битрейта : Переменный
    Битрейт : 57 бит/сек
    Размер потока : 51, 2 Кбайт (0%)
    Язык : English
    Default : Нет
    Forced : Нет
    Alternate group : 2
    Дата кодирования : UTC 2018-05-29 08:13:08
    Дата пометки : UTC 2018-05-29 09:56:54
    tagc : public.main-program-content
    Текст #3
    Идентификатор : 14
    Формат : Timed Text
    Режим смешивания : sbtl
    Идентификатор кодека : tx3g
    Продолжительность : 2 ч. 8 м.
    Вид битрейта : Переменный
    Битрейт : 71 бит/сек
    Размер потока : 66, 7 Кбайт (0%)
    Язык : English
    Default : Нет
    Forced : Нет
    Alternate group : 2
    Дата кодирования : UTC 2018-05-29 08:13:08
    Дата пометки : UTC 2018-05-29 09:56:54
    tagc : public.auxiliary-content
    Меню
    Идентификатор : 15
    Идентификатор кодека : text
    Продолжительность : 2 ч. 8 м.
    Язык : English
    Дата кодирования : UTC 2018-05-29 09:56:55
    Дата пометки : UTC 2018-05-29 09:56:55
    Menu For : 1
    00:00:00.000 : Opening titles
    00:01:06.275 : Birthday party
    00:02:52.422 : “Happy birthday, sir”
    00:05:51.851 : Profound life experience
    00:09:27.734 : Forty-eight
    00:13:41.738 : Consumer Recreation Services
    00:17:54.365 : “Confused . . . risky . . . bloody . . . whoops”
    00:20:52.543 : John 9:25
    00:24:49.405 : “This is your Game, and welcome to it”
    00:30:47.846 : Helping hand
    00:34:00.538 : “Don’t let her get away”
    00:43:13.508 : Czar Nicholas
    00:51:09.984 : Guy in the gray flannel suit
    00:53:55.816 : Hotel Nikko
    00:59:11.339 : Toyed with by depraved children
    01:04:56.392 : Nicholas Van Cocksucker
    01:08:06.541 : Human piñata
    01:12:31.556 : California Regal Sedans
    01:15:57.803 : Motive
    01:18:55.397 : Cable Repair Specialists
    01:26:49.454 : Blue 2/9690D
    01:33:56.422 : Entombed
    01:37:29.927 : “Can I have your attention, please?”
    01:42:23.095 : Trust Taggarene
    01:45:14.016 : “I love your work”
    01:48:25.791 : Pulling back the curtain
    01:52:38.293 : “This is the Game”
    01:59:28.119 : Cordially invited
    02:03:44.250 : End credits
    Вид битрейта : VBR



    Игра/The Game (1997) BDRip [1080p] ATV
    Рейтинг →
     (голосов: 1, оценка 3/5, голосовать можно 1 раз )

    Другие торренты по теме:

  • Ranpo Kitan: Game of Laplace / Rampo Kitan: Game of Laplace / Таинственные истории Эдогавы Рампо: Игра Лапласа [2015, TV, 6 из 11 ep] HDTVRip 720p Raw скачать через торрент бесплатно
  • Gekijouban Kuroko no Baske: Last Game | Kurokos basketbal: Last Game | Баскетбол Куроко: последняя игра [2017, Movie] BDRip 1080p raw
  • Ou-sama Game The Animation / Kings Game The Animation / Королевская игра [2017, TV, 1 из 12] HDTV 720p raw
  • Ousama Game The Animation / Kings Game The Animation / Королевская Игра [2017, TV, 1 из 12] WEB-DL 720p Raw+Rus
  • No Game No Life | Игра на выживание | Нет игры - нет жизни [2014, TV, 8 из 12 эп.] BDrip 1080p raw скачать через торрент бесплатно
  • Шерлок Холмс: Игра теней / Sherlock Holmes: A Game of Shadows(2011) BDRip [1080p] ATV
  • Игра / Игры разведок / The Game (2014) WEB-DLRip [H.264 / 720p-LQ] (сезон 1, серии 1 из 6) CSS (обновляемая) скачать через торрент бесплатно
  • Игра / Игры разведок / The Game (2014) WEB-DLRip (сезон 1, серии 1 из 6) CSS (обновляемая) скачать через торрент бесплатно


    • Комментарии (0):

      Информация

      Информация

        Посетители, находящиеся в группе Гости, не могут оставлять комментарии в данной новости.

        ↓ Меню




        ↓ Опрос

        Вы добавили сайт в закладки?
        Да
        Нет


        Top 10 за месяц (Программы)