.
Авторизация | Регистрация
Хочешь лучшие торренты? Добавь свой email!
Добавить

Торрент скачать бесплатно

  • support: webmaster@btracker.org
» » Дьявольские врата / Devils Gate (2017) WEB-DL [1080p] ATV (MVO) торрент скачать бесплатно


    Дьявольские врата / Devils Gate (2017) WEB-DL [1080p] ATV (MVO) торрент скачать бесплатно

    Опубликовал: Админ | Дата: 30-05-2018, 05:00 | .torrent скачали: 0

    Дьявольские врата / Devils Gate (2017) WEB-DL [1080p] ATV (MVO)Производство: Канада, США/Mednick Productions
    Жанр: Ужасы, Фантастика, Триллер
    Режиссер: Клэй Стауб
    Продюсер: Валери д’Отей, Йен Димерман, Скотт Медник
    Актеры: Майло Вентимилья, Бриджет Риган, Аманда Шулл, Джонатан Фрейкс, Хавьер Ботет, Шон Эшмор, Адам Хертиг, Спенсер Древер, Скотт Джонсон, Уилл Войтович

    Описание

    Агент ФБР Дарина Френсис расследует дело об исчезновении Марии Причард и её сына Джона. Главным подозреваемым становится супруг Марии Джексон Причард, о чем сообщила сестра пропавшей. И действительно, сложно его не заподозрить — мужчина обтянул забор колючей проволокой, заколотил окна, наставил вокруг капканов и прочих страшных ловушек, выглядит и ведёт себя как будто явно не в себе. Прибыв к дому Причардов за 50 миль от города и арестовав Джексона, агент Френсис вместе с местным полицейским Солтером становятся свидетелями странных явлений: все автомобили выходят из строя, телефоны не включаются, и вдруг начинается жуткая гроза. Похоже, им придется провести ночь в доме наедине с задержанным.

    Дата мировой премьеры: 24 апреля 2017
    Продолжительность: 01: 34: 14
    Качество видео: WEB-DL 1080p
    Контейнер: M4V
    Перевод: Многоголосый (профессиональный, закадровый) (Jaskier )
    Субтитры: Английские (SDH)
    Видео: H.264, 1920x796, 2.40: 1, 4 500 kbps, 23.976 fps
    Аудио#1 : AAC, 2.0 ch, 295 kbps, 48.0 kHz Русский | MVO Jaskier |
    Аудио#2 : AAC, 2.0 ch, 288 kbps, 48.0 kHz English | Original |
    Аудио#3 : AC3, DD 5.1, 6.0 ch, 384 kbps, 48.0 kHz Русский | MVO Jaskier |
    Аудио#4 : AC3, DD 5.1, 6.0 ch, 384 kbps, 48.0 kHz English| Original |
    Код: выделить все

    Общее
    Полное имя : /Users/Devils.Gate.2017.WEB-DL.1080p.m4v
    Формат : MPEG-4
    Идентификатор кодека : M4V (M4V /M4A /mp42/isom)
    Размер файла : 3, 93 Гбайт
    Продолжительность : 1 ч. 34 м.
    Режим общего битрейта : Переменный
    Общий поток : 5970 Кбит/сек
    Название фильма : Дьявольские врата
    Исполнитель : Clay Staub
    Режиссёр : Clay Staub
    Исполнитель : Milo Ventimiglia/Bridget Regan/Amanda Schull/Shawn Ashmore/Jonathan Frakes/Javier Botet/Spencer Drever/Scott Johnson/Adam Hurtig/Beverly Ndukwu/Sarah Constible/Jean-François Ferland
    Сценарист : Clay Staub/Peter Aperlo
    Продюсер : Valérie d\'Auteuil/Ian Dimerman/Scott Mednick/André Rouleau/Brendon Sawatzky
    Исполнительный продюсер : Skyler Mednick
    Студия-производитель : Mednick Productions, Caramel Films
    Жанр : триллер, ужасы, фантастика
    Тип содержимого : Short Film
    Дата записи : UTC 2017-04-24 00:00:00
    Дата кодирования : UTC 2018-05-29 11:44:08
    Дата пометки : UTC 2018-05-29 11:52:19
    Обложка : Yes
    LongDescription : Агент ФБР расследует таинственное исчезновение матери и сына в небольшом городке Северной Дакоты. Когда ее расследование сосредотачивается на муже и отце пропавших, она узнает страшный секрет, который скрывала эта семья поколениями.
    ContentRating : mpaa|Unrated|???|
    Видео #1
    Идентификатор : 1
    Формат : AVC
    Формат/Информация : Advanced Video Codec
    Профиль формата : High@L4
    Настройки формата : CABAC/5 Ref Frames
    Параметр CABAC формата : Да
    Параметр ReFrames формата : 5 кадров
    Идентификатор кодека : avc1
    Идентификатор кодека/Информация : Advanced Video Coding
    Продолжительность : 1 ч. 34 м.
    Битрейт : 4500 Кбит/сек
    Ширина : 1920 пикселей
    Высота : 796 пикселей
    Соотношение сторон : 2, 40:1
    Режим частоты кадров : Переменный
    Частота кадров : 23, 976 кадра/сек
    Минимальная частота кадров : 23, 810 кадра/сек
    Максимальная частота кадров : 24, 390 кадра/сек
    Цветовое пространство : YUV
    Субдискретизация насыщенности : 4:2:0
    Битовая глубина : 8 бит
    Тип развёртки : Прогрессивная
    Бит/(Пиксели*Кадры) : 0.126
    Размер потока : 3, 03 Гбайт (77%)
    Язык : English
    Дата кодирования : UTC 2018-05-29 11:44:08
    Дата пометки : UTC 2018-05-29 11:52:07
    Цветовой диапазон : Limited
    Основные цвета : BT.709
    Характеристики трансфера : BT.709
    Коэффициенты матрицы : BT.709
    Menus : 7, 8
    Видео #2
    Идентификатор : 8
    Формат : JPEG
    Идентификатор кодека : jpeg
    Продолжительность : 1 ч. 34 м.
    Вид битрейта : Переменный
    Битрейт : 433 бит/сек
    Ширина : 640 пикселей
    Высота : 265 пикселей
    Соотношение сторон : 2, 40:1
    Режим частоты кадров : Переменный
    Частота кадров : 0, 002 кадр/сек
    Минимальная частота кадров : 0, 001 кадр/сек
    Максимальная частота кадров : 0, 002 кадр/сек
    Цветовое пространство : YUV
    Субдискретизация насыщенности : 4:2:0
    Битовая глубина : 8 бит
    Метод сжатия : С потерями
    Бит/(Пиксели*Кадры) : 1.277
    Размер потока : 238 Кбайт (0%)
    Язык : English
    Default : Нет
    Дата кодирования : UTC 2018-05-29 11:52:18
    Дата пометки : UTC 2018-05-29 11:52:18
    Menu For : 1
    ColorSpace_ICC : RGB
    Аудио #1
    Идентификатор : 2
    Формат : AAC
    Формат/Информация : Advanced Audio Codec
    Профиль формата : LC
    Идентификатор кодека : mp4a-40-2
    Продолжительность : 1 ч. 34 м.
    Вид битрейта : Переменный
    Битрейт : 295 Кбит/сек
    Максимальный битрейт : 487 Кбит/сек
    Каналы : 2 канала
    Расположение каналов : Front: L R
    Частота : 48, 0 КГц
    Частота кадров : 46, 875 кадров/сек (1024 SPF)
    Метод сжатия : С потерями
    Размер потока : 199 Мбайт (5%)
    Язык : Russian
    Default : Да
    Alternate group : 1
    Дата кодирования : UTC 2018-05-29 11:44:08
    Дата пометки : UTC 2018-05-29 11:52:07
    Fallback From : 4
    tagc : public.main-program-content
    Аудио #2
    Идентификатор : 3
    Формат : AAC
    Формат/Информация : Advanced Audio Codec
    Профиль формата : LC
    Идентификатор кодека : mp4a-40-2
    Продолжительность : 1 ч. 34 м.
    Вид битрейта : Переменный
    Битрейт : 288 Кбит/сек
    Максимальный битрейт : 500 Кбит/сек
    Каналы : 2 канала
    Расположение каналов : Front: L R
    Частота : 48, 0 КГц
    Частота кадров : 46, 875 кадров/сек (1024 SPF)
    Метод сжатия : С потерями
    Размер потока : 195 Мбайт (5%)
    Язык : English
    Default : Нет
    Alternate group : 1
    Дата кодирования : UTC 2018-05-29 11:44:08
    Дата пометки : UTC 2018-05-29 11:52:07
    Fallback From : 5
    tagc : public.main-program-content
    Аудио #3
    Идентификатор : 4
    Формат : AC-3
    Формат/Информация : Audio Coding 3
    Идентификатор кодека : ac-3
    Продолжительность : 1 ч. 34 м.
    Вид битрейта : Постоянный
    Битрейт : 384 Кбит/сек
    Каналы : 6 каналов
    Расположение каналов : Front: L C R, Side: L R, LFE
    Частота : 48, 0 КГц
    Частота кадров : 31, 250 кадров/сек (1536 SPF)
    Битовая глубина : 16 бит
    Метод сжатия : С потерями
    Размер потока : 259 Мбайт (6%)
    Язык : Russian
    Service kind : Complete Main
    Default : Inherited From: 2
    Alternate group : 1
    Дата кодирования : UTC 2018-05-29 11:44:08
    Дата пометки : UTC 2018-05-29 11:52:07
    Fallback To : 2
    tagc : public.main-program-content
    Аудио #4
    Идентификатор : 5
    Формат : AC-3
    Формат/Информация : Audio Coding 3
    Идентификатор кодека : ac-3
    Продолжительность : 1 ч. 34 м.
    Вид битрейта : Постоянный
    Битрейт : 384 Кбит/сек
    Каналы : 6 каналов
    Расположение каналов : Front: L C R, Side: L R, LFE
    Частота : 48, 0 КГц
    Частота кадров : 31, 250 кадров/сек (1536 SPF)
    Битовая глубина : 16 бит
    Метод сжатия : С потерями
    Размер потока : 259 Мбайт (6%)
    Язык : English
    Service kind : Complete Main
    Default : Нет
    Alternate group : 1
    Дата кодирования : UTC 2018-05-29 11:44:08
    Дата пометки : UTC 2018-05-29 11:52:07
    Fallback To : 3
    tagc : public.main-program-content
    Текст
    Идентификатор : 6
    Формат : Timed Text
    Режим смешивания : sbtl
    Идентификатор кодека : tx3g
    Продолжительность : 1 ч. 26 м.
    Вид битрейта : Переменный
    Битрейт : 65 бит/сек
    Размер потока : 41, 3 Кбайт (0%)
    Язык : English
    Default : Да
    Forced : Нет
    Alternate group : 2
    Дата кодирования : UTC 2018-05-29 11:44:08
    Дата пометки : UTC 2018-05-29 11:52:07
    tagc : public.main-program-content
    Меню
    Идентификатор : 7
    Идентификатор кодека : text
    Продолжительность : 1 ч. 34 м.
    Язык : English
    Дата кодирования : UTC 2018-05-29 11:52:07
    Дата пометки : UTC 2018-05-29 11:52:07
    Вид битрейта : CBR
    Menu For : 1
    00:00:00.000 : 1
    00:11:54.547 : 2
    00:23:47.718 : 3
    00:34:33.822 : 4
    00:47:00.276 : 5
    00:57:27.152 : 6
    01:09:10.647 : 7
    01:19:24.635 : 8
    01:27:22.279 : 9



    Дьявольские врата/Devils Gate (2017) WEB-DL [1080p] ATV (MVO)
    Рейтинг →
     (голосов: 1, оценка 3/5, голосовать можно 1 раз )

    Другие торренты по теме:

  • Дьявольские врата / Devils Gate (2017) WEB-DLRip [H.264 / 720p-LQ] [MVO] [AD]
  • Дьявольские врата / Devils Gate (2017) WEB-DLRip
  • Дьявольские врата / Devils Gate (2017) WEB-DL [H.264 / 1080p-LQ]
  • Дьявольские врата / Devils Gate (2017) WEB-DLRip [H.264]
  • Дьявольские врата / Devils Gate (2017) BDRip [MVO]
  • Дьявольские врата / Devils Gate (2017) BDRip [H.264 / 1080p-LQ] [MVO]
  • Дьявольские врата / Devils Gate (2017) BDRemux [H.264 / 1080p] [MVO]
  • Дьявольские врата / Devils Gate (2017) BDRip [H.264 / 1080p] [MVO]


    • Комментарии (0):

      Информация

      Информация

        Посетители, находящиеся в группе Гости, не могут оставлять комментарии в данной новости.

        ↓ Меню




        ↓ Опрос

        Вы добавили сайт в закладки?
        Да
        Нет


        Top 10 за месяц (Программы)