.
Авторизация | Регистрация
Хочешь лучшие торренты? Добавь свой email!
Добавить

Торрент скачать бесплатно

  • support: webmaster@btracker.org
» » Чистокровные / Thoroughbreds (2017) WEB-DL [1080p] ATV (MVO) торрент скачать бесплатно


    Чистокровные / Thoroughbreds (2017) WEB-DL [1080p] ATV (MVO) торрент скачать бесплатно

    Опубликовал: Админ | Дата: 30-05-2018, 05:00 | .torrent скачали: 0

    Чистокровные / Thoroughbreds (2017) WEB-DL [1080p] ATV (MVO)Производство: США/B Story, Big Indie Pictures, June Pictures
    Жанр: Триллер, Драма
    Режиссер: Кори Финли
    Продюсер: Andrew Duncan, Нат Факсон, Джим Рэш
    Актеры: Аня Тейлор-Джой, Оливия Кук, Антон Ельчин, Пол Спаркс, Кайли Вернофф, Фрэнси Свифт, Леа Просито, Макс Рипли, Шанти Спиллейн

    Описание

    Дороги двух подруг из пригорода Коннектикута разошлись, и девушки не виделись несколько лет. Когда они снова встречаются, то решают восстановить свою былую дружбу. При более тесном общении девушки замечают, что они обе очень изменились, и даже стали способными на убийство.

    Рейтинг MPAA: R (лицам до 17 лет обязательно присутствие взрослого)
    Дата мировой премьеры: 21 января 2017
    Продолжительность: 01: 32: 04
    Качество видео: WEB-DL 1080p
    Контейнер: M4V
    Перевод: Многоголосый (профессиональный, закадровый) (HDrezka Studio )
    Субтитры: Русские (вшитые, отключаемые), Английские (вшитые, отключаемые)
    Видео: H.264, 1916x800, 2.40: 1, 4 549 kbps, 23.976 fps
    Аудио#1 : AAC, 2.0 ch, 288 kbps, 48.0 kHz Русский | MVO HDrezka Studio |
    Аудио#2 : AAC, 2.0 ch, 277 kbps, 48.0 kHz English | Original |
    Аудио#3 : AC3, DD 5.1, 6.0 ch, 384 kbps, 48.0 kHz English| Original |
    Код: выделить все

    Общее
    Полное имя : /Users/Thoroughbreds.2017.WEB-DL.1080p.m4v
    Формат : MPEG-4
    Идентификатор кодека : M4V (M4V /M4A /mp42/isom)
    Размер файла : 3, 54 Гбайт
    Продолжительность : 1 ч. 32 м.
    Режим общего битрейта : Переменный
    Общий поток : 5507 Кбит/сек
    Название фильма : Чистокровные
    Исполнитель : Cory Finley
    Композитор : Erik Friedlander
    Режиссёр : Cory Finley
    Исполнитель : Olivia Cooke/Anya Taylor-Joy/Anton Yelchin/Paul Sparks/Francie Swift/Kaili Vernoff/Stephanie Atkinson/Alex Wolff/Kristen Annese/Chaunty Spillane/Lauren Laperriere/Thomas Dings/Svetlana Orlova/Leah Procito/Odin Impetuous Lowe/Xavier Dillingham/Jack Norton/Daniel Martignetti/Max Ripley
    Сценарист : Cory Finley
    Продюсер : Nat Faxon/Jim Rash/Alex Saks/Kevin J. Walsh/Andrew Duncan
    Исполнительный продюсер : Declan Baldwin, Ryan Stowell, B. Ted Deiker
    Студия-производитель : June Pictures, B Story, Big Indie Pictures
    Жанр : драма, триллер
    Тип содержимого : Short Film
    Дата записи : UTC 2018-03-09 00:00:00
    Дата кодирования : UTC 2018-05-29 12:56:19
    Дата пометки : UTC 2018-05-29 13:40:24
    Обложка : Yes
    LongDescription : Дороги двух подруг из пригорода Коннектикута разошлись, и девушки не виделись несколько лет. Когда они снова встречаются, то решают восстановить свою былую дружбу. При более тесном общении девушки замечают, что они обе очень изменились, и даже стали способными на убийство.
    ContentRating : mpaa|R|400|
    Видео #1
    Идентификатор : 1
    Формат : AVC
    Формат/Информация : Advanced Video Codec
    Профиль формата : High@L4
    Настройки формата : CABAC/5 Ref Frames
    Параметр CABAC формата : Да
    Параметр ReFrames формата : 5 кадров
    Идентификатор кодека : avc1
    Идентификатор кодека/Информация : Advanced Video Coding
    Продолжительность : 1 ч. 32 м.
    Битрейт : 4549 Кбит/сек
    Ширина : 1916 пикселей
    Высота : 800 пикселей
    Соотношение сторон : 2, 40:1
    Режим частоты кадров : Переменный
    Частота кадров : 23, 976 (23976/1000) кадра/сек
    Минимальная частота кадров : 23, 810 кадра/сек
    Максимальная частота кадров : 24, 390 кадра/сек
    Цветовое пространство : YUV
    Субдискретизация насыщенности : 4:2:0
    Битовая глубина : 8 бит
    Тип развёртки : Прогрессивная
    Бит/(Пиксели*Кадры) : 0.124
    Размер потока : 2, 93 Гбайт (83%)
    Язык : English
    Дата кодирования : UTC 2018-05-29 12:56:19
    Дата пометки : UTC 2018-05-29 13:39:51
    Цветовой диапазон : Limited
    Основные цвета : BT.709
    Характеристики трансфера : BT.709
    Коэффициенты матрицы : BT.709
    Menus : 7, 8
    Видео #2
    Идентификатор : 8
    Формат : JPEG
    Идентификатор кодека : jpeg
    Продолжительность : 1 ч. 32 м.
    Вид битрейта : Переменный
    Битрейт : 844 бит/сек
    Ширина : 640 пикселей
    Высота : 267 пикселей
    Соотношение сторон : 2, 40:1
    Режим частоты кадров : Переменный
    Частота кадров : 0, 004 кадр/сек
    Минимальная частота кадров : 0, 003 кадр/сек
    Максимальная частота кадров : 0, 008 кадр/сек
    Цветовое пространство : YUV
    Субдискретизация насыщенности : 4:2:0
    Битовая глубина : 8 бит
    Метод сжатия : С потерями
    Бит/(Пиксели*Кадры) : 1.235
    Размер потока : 515 Кбайт (0%)
    Язык : English
    Default : Нет
    Дата кодирования : UTC 2018-05-29 13:40:23
    Дата пометки : UTC 2018-05-29 13:40:24
    Menu For : 1
    ColorSpace_ICC : RGB
    Аудио #1
    Идентификатор : 2
    Формат : AAC
    Формат/Информация : Advanced Audio Codec
    Профиль формата : LC
    Идентификатор кодека : mp4a-40-2
    Продолжительность : 1 ч. 32 м.
    Вид битрейта : Переменный
    Битрейт : 288 Кбит/сек
    Максимальный битрейт : 494 Кбит/сек
    Каналы : 2 канала
    Расположение каналов : Front: L R
    Частота : 48, 0 КГц
    Частота кадров : 46, 875 кадров/сек (1024 SPF)
    Метод сжатия : С потерями
    Размер потока : 189 Мбайт (5%)
    Язык : Russian
    Default : Да
    Alternate group : 1
    Дата кодирования : UTC 2018-05-29 12:56:19
    Дата пометки : UTC 2018-05-29 13:39:51
    tagc : public.main-program-content
    Аудио #2
    Идентификатор : 3
    Формат : AAC
    Формат/Информация : Advanced Audio Codec
    Профиль формата : LC
    Идентификатор кодека : mp4a-40-2
    Продолжительность : 1 ч. 32 м.
    Вид битрейта : Переменный
    Битрейт : 277 Кбит/сек
    Максимальный битрейт : 493 Кбит/сек
    Каналы : 2 канала
    Расположение каналов : Front: L R
    Частота : 48, 0 КГц
    Частота кадров : 46, 875 кадров/сек (1024 SPF)
    Метод сжатия : С потерями
    Размер потока : 182 Мбайт (5%)
    Язык : English
    Default : Нет
    Alternate group : 1
    Дата кодирования : UTC 2018-05-29 12:56:19
    Дата пометки : UTC 2018-05-29 13:39:51
    Fallback From : 4
    tagc : public.main-program-content
    Аудио #3
    Идентификатор : 4
    Формат : AC-3
    Формат/Информация : Audio Coding 3
    Идентификатор кодека : ac-3
    Продолжительность : 1 ч. 32 м.
    Вид битрейта : Постоянный
    Битрейт : 384 Кбит/сек
    Каналы : 6 каналов
    Расположение каналов : Front: L C R, Side: L R, LFE
    Частота : 48, 0 КГц
    Частота кадров : 31, 250 кадров/сек (1536 SPF)
    Битовая глубина : 16 бит
    Метод сжатия : С потерями
    Размер потока : 253 Мбайт (7%)
    Язык : English
    Service kind : Complete Main
    Default : Нет
    Alternate group : 1
    Дата кодирования : UTC 2018-05-29 12:56:19
    Дата пометки : UTC 2018-05-29 13:39:51
    Fallback To : 3
    tagc : public.main-program-content
    Текст #1
    Идентификатор : 5
    Формат : Timed Text
    Режим смешивания : sbtl
    Идентификатор кодека : tx3g
    Продолжительность : 1 ч. 26 м.
    Вид битрейта : Переменный
    Битрейт : 88 бит/сек
    Размер потока : 56, 2 Кбайт (0%)
    Язык : Russian
    Default : Да
    Forced : Нет
    Alternate group : 2
    Дата кодирования : UTC 2018-05-29 12:56:19
    Дата пометки : UTC 2018-05-29 13:39:52
    tagc : public.main-program-content
    Текст #2
    Идентификатор : 6
    Формат : Timed Text
    Режим смешивания : sbtl
    Идентификатор кодека : tx3g
    Продолжительность : 1 ч. 26 м.
    Вид битрейта : Переменный
    Битрейт : 64 бит/сек
    Размер потока : 40, 7 Кбайт (0%)
    Язык : English
    Default : Нет
    Forced : Нет
    Alternate group : 2
    Дата кодирования : UTC 2018-05-29 12:56:19
    Дата пометки : UTC 2018-05-29 13:39:52
    tagc : public.main-program-content
    Меню
    Идентификатор : 7
    Идентификатор кодека : text
    Продолжительность : 1 ч. 32 м.
    Язык : English
    Дата кодирования : UTC 2018-05-29 13:39:52
    Дата пометки : UTC 2018-05-29 13:39:52
    Menu For : 1
    00:00:00.000 : 1
    00:05:35.126 : 2
    00:10:23.789 : 3
    00:16:02.335 : 4
    00:21:40.548 : 5
    00:24:59.121 : 6
    00:27:05.914 : 7
    00:29:57.585 : 8
    00:34:06.792 : 9
    00:39:17.269 : 10
    00:44:34.669 : 11
    00:49:00.726 : 12
    00:52:29.226 : 13
    00:58:51.358 : 14
    01:01:31.226 : 15
    01:05:49.442 : 16
    01:11:21.899 : 17
    01:17:57.836 : 18
    01:21:47.941 : 19
    01:26:37.146 : 20
    Вид битрейта : VBR



    Чистокровные/Thoroughbreds (2017) WEB-DL [1080p] ATV (MVO)
    Рейтинг →
     (голосов: 1, оценка 5/5, голосовать можно 1 раз )

    Другие торренты по теме:

  • Чистокровные / Thoroughbreds (2017) WEB-DL [H.264 / 1080p-LQ]
  • Чистокровные / Thoroughbreds (2017) BDRip [H.264 / 1080p] [MVO]


    • Комментарии (0):

      Информация

      Информация

        Посетители, находящиеся в группе Гости, не могут оставлять комментарии в данной новости.

        ↓ Меню




        ↓ Опрос

        Вы добавили сайт в закладки?
        Да
        Нет


        Top 10 за месяц (Программы)