.
Авторизация | Регистрация
Хочешь лучшие торренты? Добавь свой email!
Добавить

Торрент скачать бесплатно

  • support: webmaster@btracker.org
» » Жажда смерти / Death Wish (2018) BDRip [1080p] ATV [Line] торрент скачать бесплатно


    Жажда смерти / Death Wish (2018) BDRip [1080p] ATV [Line] торрент скачать бесплатно

    Опубликовал: Админ | Дата: 30-05-2018, 05:00 | .torrent скачали: 1

    Жажда смерти / Death Wish (2018) BDRip [1080p] ATV [Line]Производство: США/Paramount Pictures, Metro-Goldwyn-Mayer, Cave 76
    Жанр: Боевик, Триллер, Криминал
    Режиссер: Элай Рот
    Продюсер: Роджер Бирнбаум, Стивен Дж. Идс, Илона Херцберг
    Актеры: Брюс Уиллис, Винсент Д\'Онофрио, Элизабет Шу, Камила Морроне, Дин Норрис, Бо Напп, Кимберли Элиз, Лен Кариу, Джек Кеси, Ронни Джин Блевинс

    Описание

    Пол Керси — хирург, привыкший вытаскивать людей с того света после криминальных разборок. Но после того, как его жена и дочь становятся жертвами уличной банды, а полиция бездействует, он берет карающий меч правосудия в свои руки. Видео изобретательных убийств преступников покоряют интернет-топы, а среди жителей города расходятся слухи о неуловимом народном мстителе, которому теперь принадлежит весь город. Он мстит бодро, весело и со вкусом.

    Возраст: 18+ (зрителям, достигшим 18 лет. запрещено для детей)
    Рейтинг MPAA: R (лицам до 17 лет обязательно присутствие взрослого)
    Дата мировой премьеры: 1 марта 2018
    Дата российской премьеры: 5 апреля 2018, Экспонента
    Продолжительность: 01: 46: 43
    Качество видео: BDRip 1080p
    Контейнер: M4V
    Перевод: Дублированный (чистый звук)
    Субтитры: Английские (вшитые, отключаемые)
    Видео: H.264, 1920x800, 2.40: 1, 7 700 kbps, 23.976 fps
    Аудио#1 : AAC, 2.0 ch, 273 kbps, 48.0 kHz Русский | DUB Line |
    Аудио#2 : AAC, 2.0 ch, 265 kbps, 48.0 kHz English | Original |
    Аудио#3 : AC3, DD 5.1, 6.0 ch, 640 kbps, 48.0 kHz English| Original |
    Код: выделить все

    Общее
    Полное имя : /Users/Death.Wish.2018.BDRip.108Op.m4v
    Формат : MPEG-4
    Профиль формата : Base Media/Version 2
    Идентификатор кодека : mp42 (isom/iso2/avc1/mp41)
    Размер файла : 6, 42 Гбайт
    Продолжительность : 1 ч. 46 м.
    Режим общего битрейта : Переменный
    Общий поток : 8612 Кбит/сек
    Название фильма : Жажда смерти
    Исполнитель : Eli Roth
    Режиссёр : Eli Roth
    Исполнитель : Bruce Willis/Vincent D\'Onofrio/Dean Norris/Elisabeth Shue/Camila Morrone/Jack Kesy/Kirby Bliss Blanton/Beau Knapp/Mike Epps/Len Cariou/Kimberly Elise/Ronnie Gene Blevins/Ian Matthews/Nathaly Thibault/Christopher Tyson/Melantha Blackthorne/Dawn Ford/Moe Jeudy-Lamour/Stephanie Janusauskas/Jason Cavalier/Naomi Frenette/Alex Zelenka/Luis Oliva/Kenny Wong/Mike Chute/Richard Esteras/Sway
    Сценарист : Brian Garfield/Joe Carnahan/Richard Bennet/Wendell Mayes
    Продюсер : Roger Birnbaum/Robert Birnbaum/Sylvester Stallone
    Студия-производитель : Metro-Goldwyn-Mayer, Cave 76
    Жанр : боевик, криминал, драма, триллер
    Тип содержимого : Short Film
    Дата записи : UTC 2018-03-02 00:00:00
    Дата кодирования : UTC 2018-05-28 15:04:54
    Дата пометки : UTC 2018-05-29 02:08:03
    Программа кодирования : HandBrake 1.1.0 2018040700
    Обложка : Yes
    LongDescription : Добропорядочный семьянин становится настоящей машиной для убийства после того, как уличная банда убивает его жену и калечит дочь.
    ContentRating : mpaa|R|400|
    Видео #1
    Идентификатор : 1
    Формат : AVC
    Формат/Информация : Advanced Video Codec
    Профиль формата :High@L4.1
    Настройки формата : CABAC/5 Ref Frames
    Параметр CABAC формата : Да
    Параметр ReFrames формата : 5 кадров
    Идентификатор кодека : avc1
    Идентификатор кодека/Информация : Advanced Video Coding
    Продолжительность : 1 ч. 46 м.
    Битрейт : 7700 Кбит/сек
    Ширина : 1920 пикселей
    Высота : 800 пикселей
    Соотношение сторон : 2, 40:1
    Режим частоты кадров : Переменный
    Частота кадров : 23, 976 (24000/1001) кадра/сек
    Минимальная частота кадров : 23, 974 кадра/сек
    Максимальная частота кадров : 23, 981 кадра/сек
    Цветовое пространство : YUV
    Субдискретизация насыщенности : 4:2:0
    Битовая глубина : 8 бит
    Тип развёртки : Прогрессивная
    Бит/(Пиксели*Кадры) : 0.209
    Размер потока : 5, 53 Гбайт (86%)
    Библиотека кодирования : x264 core 155 r2893 b00bcaf
    Настройки программы : cabac=1/ref=5/deblock=1:-1:-1/analyse=0x3:0x133/me=umh/subme=9/psy=1/psy_rd=1.00:0.15/mixed_ref=1/me_range=16/chroma_me=1/trellis=2/8x8dct=1/cqm=0/deadzone=21, 11/fast_pskip=1/chroma_qp_offset=-3/threads=6/lookahead_threads=1/sliced_threads=0/nr=0/decimate=1/interlaced=0/bluray_compat=0/constrained_intra=0/bframes=3/b_pyramid=2/b_adapt=2/b_bias=0/direct=3/weightb=1/open_gop=0/weightp=2/keyint=240/keyint_min=24/scenecut=40/intra_refresh=0/rc_lookahead=60/rc=abr/mbtree=1/bitrate=7700/ratetol=1.0/qcomp=0.60/qpmin=0/qpmax=69/qpstep=4/vbv_maxrate=62500/vbv_bufsize=78125/nal_hrd=none/filler=0/ip_ratio=1.40/aq=1:1.00
    Язык : English
    Дата кодирования : UTC 2018-05-28 15:04:54
    Дата пометки : UTC 2018-05-28 15:04:54
    Цветовой диапазон : Limited
    Основные цвета : BT.709
    Характеристики трансфера : BT.709
    Коэффициенты матрицы : BT.709
    Menus : 6, 7
    Видео #2
    Идентификатор : 7
    Формат : JPEG
    Идентификатор кодека : jpeg
    Продолжительность : 1 ч. 46 м.
    Вид битрейта : Переменный
    Битрейт : 1063 бит/сек
    Ширина : 640 пикселей
    Высота : 266 пикселей
    Соотношение сторон : 2, 40:1
    Режим частоты кадров : Переменный
    Частота кадров : 0, 004 кадр/сек
    Минимальная частота кадров : 0, 002 кадр/сек
    Максимальная частота кадров : 0, 006 кадр/сек
    Цветовое пространство : YUV
    Субдискретизация насыщенности : 4:2:0
    Битовая глубина : 8 бит
    Метод сжатия : С потерями
    Бит/(Пиксели*Кадры) : 1.561
    Размер потока : 779 Кбайт (0%)
    Язык : English
    Default : Нет
    Дата кодирования : UTC 2018-05-29 02:08:02
    Дата пометки : UTC 2018-05-29 02:08:03
    Menu For : 1
    ColorSpace_ICC : RGB
    Аудио #1
    Идентификатор : 2
    Формат : AAC
    Формат/Информация : Advanced Audio Codec
    Профиль формата : LC
    Идентификатор кодека : mp4a-40-2
    Продолжительность : 1 ч. 46 м.
    Вид битрейта : Переменный
    Битрейт : 273 Кбит/сек
    Максимальный битрейт : 498 Кбит/сек
    Каналы : 2 канала
    Расположение каналов : Front: L R
    Частота : 48, 0 КГц
    Частота кадров : 46, 875 кадров/сек (1024 SPF)
    Метод сжатия : С потерями
    Размер потока : 208 Мбайт (3%)
    Заголовок : Stereo/Stereo
    Язык : Russian
    Default : Да
    Alternate group : 1
    Дата кодирования : UTC 2018-05-28 15:04:54
    Дата пометки : UTC 2018-05-28 15:04:54
    Menus : 6
    tagc : public.main-program-content
    Аудио #2
    Идентификатор : 3
    Формат : AAC
    Формат/Информация : Advanced Audio Codec
    Профиль формата : LC
    Идентификатор кодека : mp4a-40-2
    Продолжительность : 1 ч. 46 м.
    Вид битрейта : Переменный
    Битрейт : 265 Кбит/сек
    Максимальный битрейт : 484 Кбит/сек
    Каналы : 2 канала
    Расположение каналов : Front: L R
    Частота : 48, 0 КГц
    Частота кадров : 46, 875 кадров/сек (1024 SPF)
    Метод сжатия : С потерями
    Размер потока : 201 Мбайт (3%)
    Заголовок : Stereo/Stereo
    Язык : English
    Default : Нет
    Alternate group : 1
    Дата кодирования : UTC 2018-05-28 15:04:54
    Дата пометки : UTC 2018-05-28 15:04:54
    Fallback From : 4
    Menus : 6
    tagc : public.main-program-content
    Аудио #3
    Идентификатор : 4
    Формат : AC-3
    Формат/Информация : Audio Coding 3
    Идентификатор кодека : ac-3
    Продолжительность : 1 ч. 46 м.
    Вид битрейта : Постоянный
    Битрейт : 640 Кбит/сек
    Каналы : 6 каналов
    Расположение каналов : Front: L C R, Side: L R, LFE
    Частота : 48, 0 КГц
    Частота кадров : 31, 250 кадров/сек (1536 SPF)
    Битовая глубина : 16 бит
    Метод сжатия : С потерями
    Размер потока : 489 Мбайт (7%)
    Заголовок : Surround/Surround
    Язык : English
    Service kind : Complete Main
    Default : Нет
    Alternate group : 1
    Дата кодирования : UTC 2018-05-28 15:04:54
    Дата пометки : UTC 2018-05-28 15:04:54
    Fallback To : 3
    tagc : public.main-program-content
    Текст
    Идентификатор : 5
    Формат : Timed Text
    Режим смешивания : sbtl
    Идентификатор кодека : tx3g
    Продолжительность : 1 ч. 40 м.
    Вид битрейта : Переменный
    Битрейт : 75 бит/сек
    Размер потока : 54, 7 Кбайт (0%)
    Язык : English
    Default : Да
    Forced : Нет
    Alternate group : 2
    Дата кодирования : UTC 2018-05-28 15:04:54
    Дата пометки : UTC 2018-05-28 15:04:54
    Menus : 6
    tagc : public.main-program-content
    Меню
    Идентификатор : 6
    Идентификатор кодека : text
    Продолжительность : 1 ч. 46 м.
    Язык : English
    Дата кодирования : UTC 2018-05-28 15:04:54
    Дата пометки : UTC 2018-05-28 15:04:54
    Вид битрейта : CBR
    Menu For : 1, 2, 3, 5
    00:00:00.000 : 00:00:00.000
    00:05:39.089 : 00:05:39.089
    00:08:51.239 : 00:08:51.239
    00:11:55.798 : 00:11:55.798
    00:19:12.860 : 00:19:12.860
    00:24:34.139 : 00:24:34.139
    00:28:37.174 : 00:28:37.174
    00:32:45.964 : 00:32:45.964
    00:36:15.840 : 00:36:15.840
    00:43:49.168 : 00:43:49.168
    00:47:10.411 : 00:47:10.411
    00:53:49.518 : 00:53:49.518
    00:56:56.413 : 00:56:56.330
    01:00:27.082 : 01:00:27.082
    01:07:55.154 : 01:07:55.154
    01:11:16.564 : 01:11:16.564
    01:15:52.256 : 01:15:52.256
    01:19:23.926 : 01:19:23.926
    01:22:41.415 : 01:22:41.415
    01:25:43.889 : 01:25:43.889
    01:28:20.837 : 01:28:20.837
    01:31:24.938 : 01:31:24.813
    01:37:14.537 : 01:37:14.537
    01:40:07.585 : 01:40:07.585



    Жажда смерти/Death Wish (2018) BDRip [1080p] ATV [Line]
    Рейтинг →
     (голосов: 1, оценка 3/5, голосовать можно 1 раз )

    Другие торренты по теме:

  • Жажда смерти 5: Лик смерти / Death Wish V: The Face of Death (1993) BDRip [H.264]
  • Жажда смерти / Death Wish (1974) BDRip [H.264 / 720p-LQ]
  • Жажда смерти / Death Wish (2018) TS [MVO] [AD]
  • Жажда смерти / Death Wish (2018) WEB-DLRip [Line, AD]
  • Жажда смерти / Death Wish (2018) WEB-DL [H.264 / 1080p-LQ] [EN / EN Sub]
  • Жажда смерти / Death Wish (2018) BDRip [H.264 / 1080p] [EN / EN Sub]
  • Жажда смерти / Death Wish (2018) BDRip [Line]
  • Жажда смерти / Death Wish (2018) BDRip [H.264 / 1080p] [Line]


    • Комментарии (0):

      Информация

      Информация

        Посетители, находящиеся в группе Гости, не могут оставлять комментарии в данной новости.

        ↓ Меню




        ↓ Опрос

        Вы добавили сайт в закладки?
        Да
        Нет


        Top 10 за месяц (Программы)