.
Авторизация | Регистрация
Хочешь лучшие торренты? Добавь свой email!
Добавить

Торрент скачать бесплатно

» » Гномы в доме / Gnome Alone (2017) WEB-DL [1080p] ATV торрент скачать бесплатно


    Гномы в доме / Gnome Alone (2017) WEB-DL [1080p] ATV торрент скачать бесплатно

    Опубликовал: Админ | Дата: 17-05-2018, 05:00 | .torrent скачали: 0

    Гномы в доме / Gnome Alone (2017) WEB-DL [1080p] ATVГод выпуска : 2017
    Производство : США
    Жанр : Мультфильм
    Продолжительность : 01: 21: 46
    Перевод : Дублированный(iTunes)
    Субтитры : Нет
    Режиссер : Питер Лепениотис
    Актеры : Бекки Джи, Джош Пек, Тара Стронг, Оливия Холт, Дэвид Кокнер, Джефф Данэм, Патрик Стамп, Нэш Гриер, Мэдисон Де Ла Гарза, Джордж Лопес
    Мировая премьера : 2 ноября 2017

    Описание : Переезжая в старинный особняк, никто даже не подозревал, что большой дом скрывает маленькие тайны. Садовые гномы, живущие тут, веками защищали наш мир от злобных троггов. У людей не останется выбора — они должны будут присоединиться к великой битве…
    Качество : WEB-DL 1080p
    Контейнер : M4V
    Видео : H.264, 1920x1038, 1.85: 1, 5 112 Kbps, 25.000 fps
    Аудио 1 : Русский/Дублированный (iTunes), AAC/2.0/160 Kbps/48.0 KHz
    Аудио 2 : Украинский/Дублированный (iTunes), AAC/2.0/160 Kbps/48.0 KHz
    Аудио 3 : Русский/Дублированный (iTunes), AC-3/5.1/384 Kbps/48.0 KHz
    Аудио 4 : Украинский/Дублированный (iTunes), AC-3/5.1/384 Kbps/48.0 KHz
    Код: выделить все

    Sort Name: Гномы в доме
    XID: Apple:vendor_id:2017-989611
    contentID: 1361832781
    Copyright: © 2018 Volga Film
    Screenwriters: Майкл Шварц, Зина Зэфлоу, Джаред Мика Херман
    Producers: Даниэль Стерлинг, Джон Х. Уильямс, Джон Кристиансон
    Director: Питер Лепениотис
    Cast: Бекки Джи, Джош Пек, Тара Стронг, Оливия Холт, Дэвид Кокнер, Джефф Данэм, Патрик Стамп, Нэш Гриер, Мэдисон Де Ла Гарза, Джордж Лопес
    Studio: 3QU Media
    Rating: 133
    Long Description: Переезжая в старинный особняк, никто даже не подозревал, что большой дом скрывает маленькие тайны. Садовые гномы, живущие тут, веками защищали наш мир от злобных троггов. У людей не останется выбора - они должны будут присоединиться к великой битве...
    Description: Переезжая в старинный особняк, никто даже не подозревал, что большой дом скрывает маленькие тайны. Садовые гномы, живущие тут, веками защищали наш мир от злобных троггов. У людей не останется выбора - они должны будут присоединиться к великой битве...
    Release Date: 2017-11-02T08:00:00Z
    Genre: Comedy
    Artist: Питер Лепениотис
    Name: Гномы в доме
    Код: выделить все

    General
    Complete name : /Users/imac/HandBrake/Gnome.Alone. WEB-DL.1080p.m4v
    Format : MPEG-4
    Codec ID : M4V
    File size : 3.54 GiB
    Duration : 1h 21mn
    Overall bit rate mode : Variable
    Overall bit rate : 6 204 Kbps
    Movie name : Гномы в доме
    Performer : Питер Лепениотис
    Director : Питер Лепениотис
    Actor : Бекки Джи/Джош Пек/Тара Стронг/Оливия Холт/Дэвид Кокнер/Джефф Данэм/Патрик Стамп/Нэш Гриер/Мэдисон Де Ла Гарза/Джордж Лопес
    Screenplay by : Майкл Шварц/Зина Зэфлоу/Джаред Мика Херман
    Producer : Даниэль Стерлинг/Джон Х. Уильямс/Джон Кристиансон
    Production studio : 3QU Media
    Genre : Comedy
    ContentType : Short Film
    Description : Переезжая в старинный особняк, никто даже не подозревал, что большой дом скрывает маленькие тайны. Садовые гномы, живущие тут, веками защищали наш мир от злобных троггов. У людей не останется выбора - они должны будут присоединиться к великой битве...
    Recorded date : UTC 2017-11-02 08:00:00
    Encoded date : UTC 2018-05-16 17:30:47
    Tagged date : UTC 2018-05-16 17:44:46
    Copyright : © 2018 Volga Film
    Cover : Yes
    Rating : None
    Title/Sort : Гномы в доме
    LongDescription : Переезжая в старинный особняк, никто даже не подозревал, что большой дом скрывает маленькие тайны. Садовые гномы, живущие тут, веками защищали наш мир от злобных троггов. У людей не останется выбора - они должны будут присоединиться к великой битве...
    AppleStoreCatalogID : 1361832781
    Vendor : Apple:vendor_id:2017-989611
    ContentRating : ru-movie|6+|150|
    Video #1
    ID : 1
    Format : AVC
    Format/Info : Advanced Video Codec
    Format profile : High@L4
    Format settings, CABAC : Yes
    Format settings, ReFrames : 4 frames
    Codec ID : avc1
    Codec ID/Info : Advanced Video Coding
    Duration : 1h 21mn
    Bit rate : 5 112 Kbps
    Width : 1 920 pixels
    Height : 1 038 pixels
    Display aspect ratio : 1.85:1
    Frame rate mode : Constant
    Frame rate : 25.000 fps
    Color space : YUV
    Chroma subsampling : 4:2:0
    Bit depth : 8 bits
    Scan type : Progressive
    Bits/(Pixel*Frame) : 0.103
    Stream size : 2.92 GiB (82%)
    Title : Main Program
    Language : English
    Encoded date : UTC 2018-05-16 17:30:47
    Tagged date : UTC 2018-05-16 17:30:54
    Color range : Limited
    Color primaries : BT.709
    Transfer characteristics : BT.709
    Matrix coefficients : BT.709
    Video #2
    ID : 7
    Format : JPEG
    Codec ID : jpeg
    Duration : 1h 21mn
    Bit rate mode : Variable
    Bit rate : 576 bps
    Width : 640 pixels
    Height : 346 pixels
    Display aspect ratio : 1.85:1
    Frame rate mode : Variable
    Frame rate : 0.002 fps
    Minimum frame rate : 0.001 fps
    Maximum frame rate : 0.002 fps
    Color space : YUV
    Chroma subsampling : 4:2:0
    Bit depth : 8 bits
    Compression mode : Lossy
    Bits/(Pixel*Frame) : 1.301
    Stream size : 352 KiB (0%)
    Title : Chapter Images
    Language : English
    Encoded date : UTC 2018-05-16 17:31:00
    Tagged date : UTC 2018-05-16 17:31:00
    Audio #1
    ID : 2
    Format : AAC
    Format/Info : Advanced Audio Codec
    Format profile : LC
    Codec ID : 40
    Duration : 1h 21mn
    Source duration : 1h 21mn
    Bit rate mode : Variable
    Bit rate : 159 Kbps
    Maximum bit rate : 225 Kbps
    Channel(s) : 2 channels
    Channel positions : Front: L R
    Sampling rate : 48.0 KHz
    Compression mode : Lossy
    Stream size : 92.7 MiB (3%)
    Source stream size : 92.7 MiB (3%)
    Title : Russian Stereo
    Language : Russian
    Encoded date : UTC 2018-05-16 17:30:47
    Tagged date : UTC 2018-05-16 17:30:56
    Audio #2
    ID : 3
    Format : AAC
    Format/Info : Advanced Audio Codec
    Format profile : LC
    Codec ID : 40
    Duration : 1h 21mn
    Source duration : 1h 21mn
    Bit rate mode : Variable
    Bit rate : 156 Kbps
    Maximum bit rate : 240 Kbps
    Channel(s) : 2 channels
    Channel positions : Front: L R
    Sampling rate : 48.0 KHz
    Compression mode : Lossy
    Stream size : 91.0 MiB (3%)
    Source stream size : 91.0 MiB (3%)
    Title : Ukrainian Stereo
    Language : Ukrainian
    Encoded date : UTC 2018-05-16 17:30:47
    Tagged date : UTC 2018-05-16 17:30:56
    Audio #3
    ID : 4
    Format : AC-3
    Format/Info : Audio Coding 3
    Mode extension : CM (complete main)
    Format settings, Endianness : Big
    Codec ID : ac-3
    Duration : 1h 21mn
    Bit rate mode : Constant
    Bit rate : 384 Kbps
    Channel(s) : 6 channels
    Channel positions : Front: L C R, Side: L R, LFE
    Sampling rate : 48.0 KHz
    Bit depth : 16 bits
    Compression mode : Lossy
    Stream size : 225 MiB (6%)
    Title : Russian DD 5.1
    Language : Russian
    Encoded date : UTC 2018-05-16 17:30:47
    Tagged date : UTC 2018-05-16 17:30:54
    Audio #4
    ID : 5
    Format : AC-3
    Format/Info : Audio Coding 3
    Mode extension : CM (complete main)
    Format settings, Endianness : Big
    Codec ID : ac-3
    Duration : 1h 21mn
    Bit rate mode : Constant
    Bit rate : 384 Kbps
    Channel(s) : 6 channels
    Channel positions : Front: L C R, Side: L R, LFE
    Sampling rate : 48.0 KHz
    Bit depth : 16 bits
    Compression mode : Lossy
    Stream size : 225 MiB (6%)
    Title : Ukrainian DD 5.1
    Language : Ukrainian
    Encoded date : UTC 2018-05-16 17:30:47
    Tagged date : UTC 2018-05-16 17:30:54
    Menu #1
    00:00:00.000 : 1
    00:06:59.920 : 2
    00:14:00.320 : 3
    00:21:03.240 : 4
    00:28:19.120 : 5
    00:36:40.200 : 6
    00:44:30.560 : 7
    00:51:53.560 : 8
    00:59:42.399 : 9
    01:07:41.840 : 10
    Menu #2
    ID : 8
    Codec ID : text
    Duration : 1h 21mn
    Encoded date : UTC 2018-05-16 17:44:39
    Tagged date : UTC 2018-05-16 17:44:39
    00:00:00.000 : 1
    00:06:59.920 : 2
    00:14:00.320 : 3
    00:21:03.240 : 4
    00:28:19.120 : 5
    00:36:40.200 : 6
    00:44:30.560 : 7
    00:51:53.560 : 8
    00:59:42.399 : 9
    01:07:41.840 : 10
    Bit rate mode : VBR
    Скриншоты :


    Все одноименные релизы в Клубе


    Релиз подготовлен для просмотра наApple TV, iPad, iPhone, iPod Touch.
    Для просмотра данного релиза на компьютере с ОС Windows рекомендуется использоватьVLC media player


    Гномы в доме/Gnome Alone (2017) WEB-DL [1080p] ATV
    Рейтинг →
     (голосов: 1, оценка 4/5, голосовать можно 1 раз )

    Другие торренты по теме:

  • Вил Хёйген | Гномы. Энциклопедия (2012) [PDF]
  • Захар Прилепин. Уроки русского. Демократия, хоббиты, гномы (23.03.2018) HDTV [H.264 / 1080i-LQ]


    • Комментарии (0):

      Информация

      Информация

        Посетители, находящиеся в группе Гости, не могут оставлять комментарии в данной новости.

        ↓ Меню




        ↓ Опрос

        Вы добавили сайт в закладки?
        Да
        Нет


        Top 10 за месяц (Программы)