.
Авторизация | Регистрация
Хочешь лучшие торренты? Добавь свой email!
Добавить

Торрент скачать бесплатно

  • support: webmaster@btracker.org
» » Красный воробей / Red Sparrow (2018) BDRip [576p] iPad торрент скачать бесплатно


    Красный воробей / Red Sparrow (2018) BDRip [576p] iPad торрент скачать бесплатно

    Опубликовал: Админ | Дата: 16-05-2018, 05:00 | .torrent скачали: 1

    Красный воробей / Red Sparrow (2018) BDRip [576p] iPadГод выпуска : 2018
    Производство : США
    Жанр : Триллер, драма, детектив
    Продолжительность : 02: 20: 13
    Перевод : Дублированный(iTunes)
    Субтитры : Русские, Английские
    Режиссер : Френсис Лоуренс
    Актеры : Дженнифер Лоуренс, Джоэл Эдгертон, Маттиас Шонартс, Шарлотта Рэмплинг, Мэри-Луиз Паркер, Киран Хайндс, Джоэли Ричардсон, Билл Кэмп, Джереми Айронс, Текла Рютен
    Мировая премьера : 19 февраля 2018

    Описание : После вынужденного окончания карьеры из-за профессиональной травмы Доминика Егорова и ее мать сталкиваются с мрачным и неопределенным будущим. Героиня соглашается стать рекрутом в Школе Воробьев, секретной службе, которая обучает уникальных молодых людей использовать свое тело и ум в качестве опаснейшего оружия. После долгого садистского обучения девушка превращается в самого опасного Воробья за всю историю секретной службы. Теперь бывшая балерина должна примирить в себе человека, которым она была, и силу, которой она овладела, со своей собственной жизнью и жизнью всех, кто ей дорог. В том числе, американского агента ЦРУ, пытающегося убедить ее, что он единственный человек, которому она может доверять.
    Качество : BDRip 576p
    Контейнер : M4V
    Видео : H.264, 1024x432, 2.40: 1, 2 200 Kbps, 23.976 (24000/1001) fps
    Аудио 1 : Русский/Дублированный (iTunes), AAC/2.0/128 Kbps/48.0 KHz
    Аудио 2 : Английский/Оригинальная дорожка , AAC/2.0/128 Kbps/48.0 KHz
    Аудио 3 : Украинский/Дублированный (iTunes), AAC/2.0/128 Kbps/48.0 KHz
    Код: выделить все

    Sort Name: Red Sparrow
    XID: Apple:vendor_id:2018-762500
    contentID: 1348194401
    Copyright: © 2018 Twentieth Century Fox Film Corporation. All rights reserved.
    Screenwriters: Джастин Хэйс, Джейсон Мэттьюс
    Producers: Питер Чернин, Дэвид Рэди, Дженно Топпинг
    Director: Френсис Лоуренс
    Cast: Дженнифер Лоуренс, Джоэл Эдгертон, Маттиас Шонартс, Шарлотта Рэмплинг, Мэри-Луиз Паркер, Киран Хайндс, Джоэли Ричардсон, Билл Кэмп, Джереми Айронс, Текла Рютен
    Studio: 20th Century Fox
    Rating: 5
    Long Description: После вынужденного окончания карьеры из-за профессиональной травмы Доминика Егорова и ее мать сталкиваются с мрачным и неопределенным будущим. Героиня соглашается стать рекрутом в Школе Воробьев, секретной службе, которая обучает уникальных молодых людей использовать свое тело и ум в качестве опаснейшего оружия. После долгого садистского обучения девушка превращается в самого опасного Воробья за всю историю секретной службы. Теперь бывшая балерина должна примирить в себе человека, которым она была, и силу, которой она овладела, со своей собственной жизнью и жизнью всех, кто ей дорог. В том числе, американского агента ЦРУ, пытающегося убедить ее, что он единственный человек, которому она может доверять.
    Description: После вынужденного окончания карьеры из-за профессиональной травмы Доминика Егорова и ее мать сталкиваются с мрачным и неопределенным будущим. Героиня соглашается стать рекрутом в Школе Воробьев, секретной службе, которая обучает уникальных молодых людей использовать свое тело и ум в качестве опаснейшего оружия. После долгого садистского обучения девушка превращается в самого опасного Воробья за всю историю секретной службы...
    Release Date: 2018-02-19T08:00:00Z
    Genre: Thriller
    Artist: Francis Lawrence
    Name: Red Sparrow
    Код: выделить все

    General
    Complete name : /Users/imac/HandBrake/Red.Sparrow.(SD).(pk).m4v
    Format : MPEG-4
    Codec ID : M4V (M4V /M4A /mp42/isom)
    File size : 2.53 GiB
    Duration : 2h 20mn
    Overall bit rate mode : Variable
    Overall bit rate : 2 585 Kbps
    Movie name : Red Sparrow
    Performer : Francis Lawrence
    Director : Френсис Лоуренс
    Actor : Дженнифер Лоуренс/Джоэл Эдгертон/Маттиас Шонартс/Шарлотта Рэмплинг/Мэри-Луиз Паркер/Киран Хайндс/Джоэли Ричардсон/Билл Кэмп/Джереми Айронс/Текла Рютен
    Screenplay by : Джастин Хэйс/Джейсон Мэттьюс
    Producer : Питер Чернин/Дэвид Рэди/Дженно Топпинг
    Production studio : 20th Century Fox
    Genre : Thriller
    ContentType : Short Film
    Description : После вынужденного окончания карьеры из-за профессиональной травмы Доминика Егорова и ее мать сталкиваются с мрачным и неопределенным будущим. Героиня соглашается стать рекрутом в Школе Воробьев, секретной службе, которая обучает уникальных молодых людей использовать свое тело и ум в качестве опаснейшего оружия. После долгого садистского обучения девушка превращается в самого опасного Воробья за всю историю секретной службы...
    Recorded date : UTC 2018-02-19 08:00:00
    Encoded date : UTC 2018-05-15 09:35:18
    Tagged date : UTC 2018-05-15 09:36:24
    Copyright : © 2018 Twentieth Century Fox Film Corporation. All rights reserved.
    Cover : Yes
    Rating : None
    Title/Sort : Red Sparrow
    LongDescription : После вынужденного окончания карьеры из-за профессиональной травмы Доминика Егорова и ее мать сталкиваются с мрачным и неопределенным будущим. Героиня соглашается стать рекрутом в Школе Воробьев, секретной службе, которая обучает уникальных молодых людей использовать свое тело и ум в качестве опаснейшего оружия. После долгого садистского обучения девушка превращается в самого опасного Воробья за всю историю секретной службы. Теперь бывшая балерина должна примирить в себе человека, которым она была, и силу, которой она овладела, со своей собственной жизнью и жизнью всех, кто ей дорог. В том числе, американского агента ЦРУ, пытающегося убедить ее, что он единственный человек, которому она может доверять.
    AppleStoreCatalogID : 1348194401
    Vendor : Apple:vendor_id:2018-762500
    ContentRating : mpaa|R|400|
    Video #1
    ID : 1
    Format : AVC
    Format/Info : Advanced Video Codec
    Format profile :High@L3.1
    Format settings : CABAC/9 Ref Frames
    Format settings, CABAC : Yes
    Format settings, ReFrames : 9 frames
    Codec ID : avc1
    Codec ID/Info : Advanced Video Coding
    Duration : 2h 20mn
    Source duration : 2h 20mn
    Bit rate : 2 200 Kbps
    Width : 1 024 pixels
    Height : 432 pixels
    Display aspect ratio : 2.40:1
    Frame rate mode : Variable
    Frame rate : 23.976 (24000/1001) fps
    Minimum frame rate : 23.974 fps
    Maximum frame rate : 23.981 fps
    Color space : YUV
    Chroma subsampling : 4:2:0
    Bit depth : 8 bits
    Scan type : Progressive
    Bits/(Pixel*Frame) : 0.207
    Stream size : 2.15 GiB (85%)
    Source stream size : 2.15 GiB (85%)
    Title : Main Program
    Writing library : x264 core 155 r2893 b00bcaf
    Encoding settings : cabac=1/ref=9/deblock=1:0:0/analyse=0x3:0x113/me=umh/subme=9/psy=1/psy_rd=1.00:0.00/mixed_ref=1/me_range=32/chroma_me=1/trellis=1/8x8dct=1/cqm=0/deadzone=21, 11/fast_pskip=1/chroma_qp_offset=-2/threads=13/lookahead_threads=1/sliced_threads=0/nr=0/decimate=1/interlaced=0/bluray_compat=0/constrained_intra=0/bframes=6/b_pyramid=2/b_adapt=2/b_bias=0/direct=1/weightb=1/open_gop=0/weightp=2/keyint=240/keyint_min=24/scenecut=40/intra_refresh=0/rc_lookahead=40/rc=2pass/mbtree=1/bitrate=2200/ratetol=1.0/qcomp=0.60/qpmin=0/qpmax=69/qpstep=4/cplxblur=20.0/qblur=0.5/ip_ratio=1.40/aq=1:1.00
    Language : English
    Encoded date : UTC 2018-05-15 09:35:18
    Tagged date : UTC 2018-05-15 09:35:25
    Color range : Limited
    Color primaries : BT.709
    Transfer characteristics : BT.709
    Matrix coefficients : BT.709
    Menus : 7, 8
    Video #2
    ID : 8
    Format : JPEG
    Codec ID : jpeg
    Duration : 2h 20mn
    Bit rate mode : Variable
    Bit rate : 723 bps
    Width : 640 pixels
    Height : 270 pixels
    Display aspect ratio : 2.40:1
    Frame rate mode : Variable
    Frame rate : 0.003 fps
    Minimum frame rate : 0.002 fps
    Maximum frame rate : 0.005 fps
    Color space : YUV
    Chroma subsampling : 4:2:0
    Bit depth : 8 bits
    Compression mode : Lossy
    Bits/(Pixel*Frame) : 1.395
    Stream size : 706 KiB (0%)
    Title : Chapter Images
    Language : English
    Default : No
    Encoded date : UTC 2018-05-15 09:35:38
    Tagged date : UTC 2018-05-15 09:35:38
    Menu For : 1
    ColorSpace_ICC : RGB
    Audio #1
    ID : 2
    Format : AAC
    Format/Info : Advanced Audio Codec
    Format profile : LC
    Codec ID : mp4a-40-2
    Duration : 2h 20mn
    Source duration : 2h 20mn
    Bit rate mode : Variable
    Bit rate : 126 Kbps
    Maximum bit rate : 201 Kbps
    Channel(s) : 2 channels
    Channel positions : Front: L R
    Sampling rate : 48.0 KHz
    Frame rate : 46.875 fps (1024 SPF)
    Compression mode : Lossy
    Stream size : 126 MiB (5%)
    Source stream size : 126 MiB (5%)
    Title : Russian Stereo
    Language : Russian
    Default : Yes
    Alternate group : 1
    Encoded date : UTC 2018-05-15 09:35:18
    Tagged date : UTC 2018-05-15 09:35:32
    Audio #2
    ID : 3
    Format : AAC
    Format/Info : Advanced Audio Codec
    Format profile : LC
    Codec ID : mp4a-40-2
    Duration : 2h 20mn
    Source duration : 2h 20mn
    Bit rate mode : Variable
    Bit rate : 126 Kbps
    Maximum bit rate : 196 Kbps
    Channel(s) : 2 channels
    Channel positions : Front: L R
    Sampling rate : 48.0 KHz
    Frame rate : 46.875 fps (1024 SPF)
    Compression mode : Lossy
    Stream size : 126 MiB (5%)
    Source stream size : 126 MiB (5%)
    Title : English Stereo
    Language : English
    Default : No
    Alternate group : 1
    Encoded date : UTC 2018-05-15 09:35:18
    Tagged date : UTC 2018-05-15 09:35:32
    Audio #3
    ID : 4
    Format : AAC
    Format/Info : Advanced Audio Codec
    Format profile : LC
    Codec ID : mp4a-40-2
    Duration : 2h 20mn
    Source duration : 2h 20mn
    Bit rate mode : Variable
    Bit rate : 126 Kbps
    Maximum bit rate : 201 Kbps
    Channel(s) : 2 channels
    Channel positions : Front: L R
    Sampling rate : 48.0 KHz
    Frame rate : 46.875 fps (1024 SPF)
    Compression mode : Lossy
    Stream size : 126 MiB (5%)
    Source stream size : 126 MiB (5%)
    Title : Ukrainian Stereo
    Language : Ukrainian
    Default : No
    Alternate group : 1
    Encoded date : UTC 2018-05-15 09:35:18
    Tagged date : UTC 2018-05-15 09:35:32
    Text #1
    ID : 5
    Format : Timed Text
    Muxing mode : sbtl
    Codec ID : tx3g
    Duration : 2h 13mn
    Bit rate mode : Variable
    Bit rate : 70 bps
    Stream size : 68.1 KiB (0%)
    Title : Russian full
    Language : Russian
    Default : Yes
    Forced : No
    Alternate group : 2
    Encoded date : UTC 2018-05-15 09:35:18
    Tagged date : UTC 2018-05-15 09:35:23
    Text #2
    ID : 6
    Format : Timed Text
    Muxing mode : sbtl
    Codec ID : tx3g
    Duration : 2h 13mn
    Bit rate mode : Variable
    Bit rate : 55 bps
    Stream size : 53.4 KiB (0%)
    Title : English full
    Language : English
    Default : No
    Forced : No
    Alternate group : 2
    Encoded date : UTC 2018-05-15 09:35:18
    Tagged date : UTC 2018-05-15 09:35:23
    Menu #1
    00:00:00.000 : 00:00:00.000
    00:08:00.105 : 00:08:00.105
    00:11:31.983 : 00:11:31.983
    00:16:57.183 : 00:16:57.183
    00:21:09.643 : 00:21:09.643
    00:27:21.265 : 00:27:21.265
    00:33:03.356 : 00:33:03.356
    00:38:09.245 : 00:38:09.245
    00:42:29.130 : 00:42:29.130
    00:46:41.799 : 00:46:41.799
    00:54:14.334 : 00:54:14.334
    00:58:45.480 : 00:58:45.480
    01:04:55.266 : 01:04:55.266
    01:10:26.264 : 01:10:26.139
    01:16:28.250 : 01:16:28.250
    01:26:44.700 : 01:26:44.699
    01:32:06.938 : 01:32:06.938
    01:36:22.443 : 01:36:22.443
    01:41:53.149 : 01:41:53.149
    01:49:48.415 : 01:49:48.415
    01:53:45.610 : 01:53:45.610
    01:58:52.083 : 01:58:52.083
    02:07:20.133 : 02:07:20.132
    02:13:40.095 : 02:13:40.095
    Menu #2
    ID : 7
    Codec ID : text
    Duration : 2h 20mn
    Language : English
    Encoded date : UTC 2018-05-15 09:35:32
    Tagged date : UTC 2018-05-15 09:35:32
    Bit rate mode : CBR
    Menu For : 1
    00:00:00.000 : 00:00:00.000
    00:08:00.105 : 00:08:00.105
    00:11:31.983 : 00:11:31.983
    00:16:57.183 : 00:16:57.183
    00:21:09.643 : 00:21:09.643
    00:27:21.265 : 00:27:21.265
    00:33:03.356 : 00:33:03.356
    00:38:09.245 : 00:38:09.245
    00:42:29.130 : 00:42:29.130
    00:46:41.799 : 00:46:41.799
    00:54:14.334 : 00:54:14.334
    00:58:45.480 : 00:58:45.480
    01:04:55.266 : 01:04:55.266
    01:10:26.264 : 01:10:26.139
    01:16:28.250 : 01:16:28.250
    01:26:44.700 : 01:26:44.699
    01:32:06.938 : 01:32:06.938
    01:36:22.443 : 01:36:22.443
    01:41:53.149 : 01:41:53.149
    01:49:48.415 : 01:49:48.415
    01:53:45.610 : 01:53:45.610
    01:58:52.083 : 01:58:52.083
    02:07:20.133 : 02:07:20.132
    02:13:40.095 : 02:13:40.095
    Код: выделить все

    x264 [info]: frame I:1828 Avg QP: 9.77 size:100748
    x264 [info]: frame P:41031 Avg QP:12.28 size: 28469
    x264 [info]: frame B:158857 Avg QP:14.56 size: 6034
    x264 [info]: consecutive B-frames: 1.9% 2.4% 6.1% 12.8% 16.6% 41.8% 18.4%
    x264 [info]: mb I I16..4: 8.5% 68.2% 23.4%
    x264 [info]: mb P I16..4: 0.8% 6.2% 1.6% P16..4: 30.2% 31.3% 23.4% 0.0% 0.0% skip: 6.6%
    x264 [info]: mb B I16..4: 0.0% 0.4% 0.1% B16..8: 33.6% 14.3% 4.4% direct: 3.6% skip:43.5% L0:45.9% L1:41.9% BI:12.2%
    x264 [info]: 8x8 transform intra:71.3% inter:64.3%
    x264 [info]: coded y, uvDC, uvAC intra: 93.2% 87.0% 77.4% inter: 27.2% 20.8% 6.6%
    x264 [info]: i16 v, h, dc, p: 35% 10% 7% 48%
    x264 [info]: i8 v, h, dc, ddl, ddr, vr, hd, vl, hu: 16% 10% 8% 8% 11% 13% 11% 12% 12%
    x264 [info]: i4 v, h, dc, ddl, ddr, vr, hd, vl, hu: 14% 9% 4% 9% 14% 15% 12% 12% 12%
    x264 [info]: i8c dc, h, v, p: 47% 21% 22% 11%
    x264 [info]: Weighted P-Frames: Y:1.8% UV:0.9%
    x264 [info]: ref P L0: 48.5% 7.6% 17.7% 7.4% 6.4% 4.2% 3.9% 2.1% 2.3% 0.0% 0.0%
    x264 [info]: ref B L0: 68.0% 14.1% 7.2% 3.7% 3.0% 2.2% 1.3% 0.4%
    x264 [info]: ref B L1: 92.6% 7.4%
    x264 [info]: kb/s:2197.32
    Скриншоты :


    Все одноименные релизы в Клубе


    Релиз подготовлен для просмотра наApple TV, iPad, iPhone, iPod Touch.
    Для просмотра данного релиза на компьютере с ОС Windows рекомендуется использоватьVLC media player


    Красный воробей/Red Sparrow (2018) BDRip [576p] iPad
    Рейтинг →
     (голосов: 1, оценка 5/5, голосовать можно 1 раз )

    Другие торренты по теме:

  • Красный воробей / Red Sparrow (2018) WEBRip [H.264 / 1080p-LQ] [MVO] [AD]
  • Красный воробей / Red Sparrow (2018) WEBRip [MVO]
  • Красный воробей / Red Sparrow (2018) WEBRip [H.264 / 1080p-LQ] [MVO]
  • Красный воробей / Red Sparrow (2018) BDRip [H.264 / 720p] [MVO] [PR]
  • Красный воробей / Red Sparrow (2018) BDRip [H.264 / 1080p] [MVO] [PR]
  • Красный воробей / Red Sparrow (2018) AC3 5.1 [hand made]
  • Красный воробей / Red Sparrow (2018) BDRemux [H.264 / 1080p]
  • Красный воробей / Red Sparrow (2018) BDRip [H.264 / 1080p]


    • Комментарии (0):

      Информация

      Информация

        Посетители, находящиеся в группе Гости, не могут оставлять комментарии в данной новости.

        ↓ Меню




        ↓ Опрос

        Вы добавили сайт в закладки?
        Да
        Нет


        Top 10 за месяц (Программы)