.
Авторизация | Регистрация
Хочешь лучшие торренты? Добавь свой email!
Добавить

Торрент скачать бесплатно

  • support: webmaster@btracker.org
» » Короче / Downsizing (2017) BDRip [576p] iPad торрент скачать бесплатно


    Короче / Downsizing (2017) BDRip [576p] iPad торрент скачать бесплатно

    Опубликовал: Админ | Дата: 4-04-2018, 05:00 | .torrent скачали: 0

    Короче / Downsizing (2017) BDRip [576p] iPadГод выпуска : 2017
    Производство : США
    Жанр : Фантастика, драма, комедия
    Продолжительность : 02: 15: 20
    Перевод : Дублированный(Лицензия)
    Субтитры : Русские форсированные, Русские, Английские
    Режиссер : Александр Пэйн
    Актеры : Мэтт Дэймон, Кристоф Вальц, Хонг Чау, Кристен Уиг, Рольф Лассгорд, Ингьерд Эгеберг, Удо Кир, Сёрен Пильмарк, Джейн Ходишелл, Джейсон Судейкис
    Мировая премьера : 30 августа 2017

    Описание : Фантастическая история о неожиданном решении проблемы перенаселения планеты: норвежские ученые придумывают технологию по уменьшению людей, благодаря которой через 200 лет весь мир можно сделать миниатюрным. К тому же мини-жизнь предлагает массу финансовых выгод, так что простой парень Пол и его жена Одри, недолго думая, решают оставить свое унылое существование в Омахе и пройти процедуру уменьшения. Это их решение повлечет за собой самые удивительные последствия…
    Качество : BDRip 576p
    Контейнер : M4V
    Видео : H.264, 1024x432, 2.40: 1, 2 200 Kbps, 23.976 (24000/1001) fps
    Аудио 1 : Русский/Дублированный (Лицензия), AAC/2.0/128 Kbps/48.0 KHz
    Аудио 2 : Английский/Оригинальная дорожка , AAC/2.0/128 Kbps/48.0 KHz
    Код: выделить все

    Sort Name: Downsizing
    XID: Apple:vendor_id:2017-462200
    contentID: 1318364079
    Copyright: © MMXVII Paramount Pictures Corporation. All Rights Reserved.
    Screenwriters: Александр Пэйн, Джим Тейлор
    Producers: Джим Бёрк, Меган Эллисон, Марк Джонсон
    Director: Александр Пэйн
    Cast: Мэтт Дэймон, Кристоф Вальц, Хонг Чау, Кристен Уиг, Рольф Лассгорд, Ингьерд Эгеберг, Удо Кир, Сёрен Пильмарк, Джейн Ходишелл, Джейсон Судейкис
    Studio: Paramount
    Rating Annotation: Rated R for language including sexual references, some graphic nudity and drug use.
    Rating: 5
    Long Description: Фантастическая история о неожиданном решении проблемы перенаселения планеты: норвежские ученые придумывают технологию по уменьшению людей, благодаря которой через 200 лет весь мир можно сделать миниатюрным. К тому же мини-жизнь предлагает массу финансовых выгод, так что простой парень Пол и его жена Одри, недолго думая, решают оставить свое унылое существование в Омахе и пройти процедуру уменьшения. Это их решение повлечет за собой самые удивительные последствия...
    Description: Фантастическая история о неожиданном решении проблемы перенаселения планеты: норвежские ученые придумывают технологию по уменьшению людей, благодаря которой через 200 лет весь мир можно сделать миниатюрным...
    Release Date: 2017-08-30T08:00:00Z
    Genre: Comedy
    Artist: Alexander Payne
    Name: Downsizing
    Код: выделить все

    General
    Complete name : /Users/imac/HandBrake/Downsizing.(SD).(pk).m4v
    Format : MPEG-4
    Codec ID : M4V (M4V /M4A /mp42/isom)
    File size : 2.33 GiB
    Duration : 2h 15mn
    Overall bit rate mode : Variable
    Overall bit rate : 2 460 Kbps
    Movie name : Downsizing
    Performer : Alexander Payne
    Director : Александр Пэйн
    Actor : Мэтт Дэймон/Кристоф Вальц/Хонг Чау/Кристен Уиг/Рольф Лассгорд/Ингьерд Эгеберг/Удо Кир/Сёрен Пильмарк/Джейн Ходишелл/Джейсон Судейкис
    Screenplay by : Александр Пэйн/Джим Тейлор
    Producer : Джим Бёрк/Меган Эллисон/Марк Джонсон
    Production studio : Paramount
    Genre : Comedy
    ContentType : Short Film
    Description : Фантастическая история о неожиданном решении проблемы перенаселения планеты: норвежские ученые придумывают технологию по уменьшению людей, благодаря которой через 200 лет весь мир можно сделать миниатюрным...
    Recorded date : UTC 2017-08-30 08:00:00
    Encoded date : UTC 2018-04-03 14:45:43
    Tagged date : UTC 2018-04-03 14:47:02
    Copyright : © MMXVII Paramount Pictures Corporation. All Rights Reserved.
    Cover : Yes
    Rating : None
    Title/Sort : Downsizing
    LongDescription : Фантастическая история о неожиданном решении проблемы перенаселения планеты: норвежские ученые придумывают технологию по уменьшению людей, благодаря которой через 200 лет весь мир можно сделать миниатюрным. К тому же мини-жизнь предлагает массу финансовых выгод, так что простой парень Пол и его жена Одри, недолго думая, решают оставить свое унылое существование в Омахе и пройти процедуру уменьшения. Это их решение повлечет за собой самые удивительные последствия...
    AppleStoreCatalogID : 1318364079
    Vendor : Apple:vendor_id:2017-462200
    ContentRating : mpaa|R|400|Rated R for language including sexual references, some graphic nudity and drug use.
    Video #1
    ID : 1
    Format : AVC
    Format/Info : Advanced Video Codec
    Format profile :High@L3.1
    Format settings : CABAC/9 Ref Frames
    Format settings, CABAC : Yes
    Format settings, ReFrames : 9 frames
    Codec ID : avc1
    Codec ID/Info : Advanced Video Coding
    Duration : 2h 15mn
    Source duration : 2h 15mn
    Bit rate : 2 200 Kbps
    Width : 1 024 pixels
    Height : 432 pixels
    Display aspect ratio : 2.40:1
    Frame rate mode : Variable
    Frame rate : 23.976 (24000/1001) fps
    Minimum frame rate : 23.974 fps
    Maximum frame rate : 23.981 fps
    Color space : YUV
    Chroma subsampling : 4:2:0
    Bit depth : 8 bits
    Scan type : Progressive
    Bits/(Pixel*Frame) : 0.207
    Stream size : 2.08 GiB (89%)
    Source stream size : 2.08 GiB (89%)
    Title : Main Program
    Writing library : x264 core 148 r2708 86b7198
    Encoding settings : cabac=1/ref=9/deblock=1:0:0/analyse=0x3:0x113/me=umh/subme=9/psy=1/psy_rd=1.00:0.00/mixed_ref=1/me_range=32/chroma_me=1/trellis=1/8x8dct=1/cqm=0/deadzone=21, 11/fast_pskip=1/chroma_qp_offset=-2/threads=13/lookahead_threads=1/sliced_threads=0/nr=0/decimate=1/interlaced=0/bluray_compat=0/constrained_intra=0/bframes=6/b_pyramid=2/b_adapt=2/b_bias=0/direct=1/weightb=1/open_gop=0/weightp=2/keyint=240/keyint_min=24/scenecut=40/intra_refresh=0/rc_lookahead=40/rc=2pass/mbtree=1/bitrate=2200/ratetol=1.0/qcomp=0.60/qpmin=0/qpmax=69/qpstep=4/cplxblur=20.0/qblur=0.5/ip_ratio=1.40/aq=1:1.00
    Language : English
    Encoded date : UTC 2018-04-03 14:45:43
    Tagged date : UTC 2018-04-03 14:45:50
    Color range : Limited
    Color primaries : BT.709
    Transfer characteristics : BT.709
    Matrix coefficients : BT.709
    Menus : 7, 8
    Video #2
    ID : 8
    Format : JPEG
    Codec ID : jpeg
    Duration : 2h 15mn
    Bit rate mode : Variable
    Bit rate : 549 bps
    Width : 640 pixels
    Height : 270 pixels
    Display aspect ratio : 2.40:1
    Frame rate mode : Variable
    Frame rate : 0.002 fps
    Minimum frame rate : 0.002 fps
    Maximum frame rate : 0.007 fps
    Color space : YUV
    Chroma subsampling : 4:2:0
    Bit depth : 8 bits
    Compression mode : Lossy
    Bits/(Pixel*Frame) : 1.589
    Stream size : 670 KiB (0%)
    Title : Chapter Images
    Language : English
    Default : No
    Encoded date : UTC 2018-04-03 14:46:02
    Tagged date : UTC 2018-04-03 14:46:02
    Menu For : 1
    ColorSpace_ICC : RGB
    Audio #1
    ID : 2
    Format : AAC
    Format/Info : Advanced Audio Codec
    Format profile : LC
    Codec ID : mp4a-40-2
    Duration : 2h 15mn
    Source duration : 2h 15mn
    Bit rate mode : Variable
    Bit rate : 126 Kbps
    Maximum bit rate : 207 Kbps
    Channel(s) : 2 channels
    Channel positions : Front: L R
    Sampling rate : 48.0 KHz
    Frame rate : 46.875 fps (1024 SPF)
    Compression mode : Lossy
    Stream size : 122 MiB (5%)
    Source stream size : 122 MiB (5%)
    Title : Russian Stereo
    Language : Russian
    Default : Yes
    Alternate group : 1
    Encoded date : UTC 2018-04-03 14:45:43
    Tagged date : UTC 2018-04-03 14:45:57
    Subtitles : 4, 5
    Audio #2
    ID : 3
    Format : AAC
    Format/Info : Advanced Audio Codec
    Format profile : LC
    Codec ID : mp4a-40-2
    Duration : 2h 15mn
    Source duration : 2h 15mn
    Bit rate mode : Variable
    Bit rate : 126 Kbps
    Maximum bit rate : 207 Kbps
    Channel(s) : 2 channels
    Channel positions : Front: L R
    Sampling rate : 48.0 KHz
    Frame rate : 46.875 fps (1024 SPF)
    Compression mode : Lossy
    Stream size : 122 MiB (5%)
    Source stream size : 122 MiB (5%)
    Title : English Stereo
    Language : English
    Default : No
    Alternate group : 1
    Encoded date : UTC 2018-04-03 14:45:43
    Tagged date : UTC 2018-04-03 14:45:57
    Text #1
    ID : 4
    Format : Timed Text
    Muxing mode : sbtl
    Codec ID : tx3g
    Duration : 1h 28mn
    Bit rate mode : Variable
    Bit rate : 2 bps
    Stream size : 1.49 KiB (0%)
    Title : Russian forced
    Language : Russian
    Default : Yes
    Forced : Yes
    Alternate group : 2
    Encoded date : UTC 2018-04-03 14:45:43
    Tagged date : UTC 2018-04-03 14:45:47
    Subtitles For : 2
    Full Alternative : 5
    Text #2
    ID : 5
    Format : Timed Text
    Muxing mode : sbtl
    Codec ID : tx3g
    Duration : 2h 15mn
    Bit rate mode : Variable
    Bit rate : 92 bps
    Stream size : 91.2 KiB (0%)
    Title : Russian full
    Language : Russian
    Default : No
    Forced : No
    Alternate group : 2
    Encoded date : UTC 2018-04-03 14:45:43
    Tagged date : UTC 2018-04-03 14:45:50
    Subtitles For : 2
    Forced Alternative : 4
    Text #3
    ID : 6
    Format : Timed Text
    Muxing mode : sbtl
    Codec ID : tx3g
    Duration : 2h 7mn
    Bit rate mode : Variable
    Bit rate : 65 bps
    Stream size : 60.5 KiB (0%)
    Title : English full
    Language : English
    Default : No
    Forced : No
    Alternate group : 2
    Encoded date : UTC 2018-04-03 14:45:43
    Tagged date : UTC 2018-04-03 14:45:50
    Menu #1
    00:00:00.000 : 00:00:00.000
    00:06:13.540 : 00:06:13.540
    00:10:38.346 : 00:10:38.346
    00:16:24.484 : 00:16:24.483
    00:22:14.667 : 00:22:14.667
    00:30:23.905 : 00:30:23.905
    00:38:44.364 : 00:38:44.364
    00:42:38.598 : 00:42:38.598
    00:47:36.687 : 00:47:36.687
    00:55:08.722 : 00:55:08.722
    01:04:35.830 : 01:04:35.830
    01:13:11.596 : 01:13:11.596
    01:21:13.202 : 01:21:13.202
    01:28:00.776 : 01:28:00.775
    01:33:25.308 : 01:33:25.308
    01:41:42.513 : 01:41:42.513
    01:44:11.871 : 01:44:11.871
    01:51:54.374 : 01:51:54.374
    01:58:36.443 : 01:58:36.443
    02:08:58.856 : 02:08:58.856
    Menu #2
    ID : 7
    Codec ID : text
    Duration : 2h 15mn
    Language : English
    Encoded date : UTC 2018-04-03 14:45:57
    Tagged date : UTC 2018-04-03 14:45:57
    Bit rate mode : CBR
    Menu For : 1
    00:00:00.000 : 00:00:00.000
    00:06:13.540 : 00:06:13.540
    00:10:38.346 : 00:10:38.346
    00:16:24.484 : 00:16:24.483
    00:22:14.667 : 00:22:14.667
    00:30:23.905 : 00:30:23.905
    00:38:44.364 : 00:38:44.364
    00:42:38.598 : 00:42:38.598
    00:47:36.687 : 00:47:36.687
    00:55:08.722 : 00:55:08.722
    01:04:35.830 : 01:04:35.830
    01:13:11.596 : 01:13:11.596
    01:21:13.202 : 01:21:13.202
    01:28:00.776 : 01:28:00.775
    01:33:25.308 : 01:33:25.308
    01:41:42.513 : 01:41:42.513
    01:44:11.871 : 01:44:11.871
    01:51:54.374 : 01:51:54.374
    01:58:36.443 : 01:58:36.443
    02:08:58.856 : 02:08:58.856
    Код: выделить все

    x264 [info]: frame I:1309 Avg QP:14.44 size: 92769
    x264 [info]: frame P:38463 Avg QP:17.08 size: 26658
    x264 [info]: frame B:154922 Avg QP:19.57 size: 7008
    x264 [info]: consecutive B-frames: 1.4% 1.3% 4.7% 13.2% 14.5% 56.8% 8.0%
    x264 [info]: mb I I16..4: 8.3% 66.2% 25.4%
    x264 [info]: mb P I16..4: 0.8% 6.7% 1.6% P16..4: 36.4% 28.7% 19.8% 0.0% 0.0% skip: 6.0%
    x264 [info]: mb B I16..4: 0.1% 1.3% 0.1% B16..8: 38.7% 9.5% 3.2% direct: 3.9% skip:43.2% L0:46.8% L1:44.0% BI: 9.1%
    x264 [info]: 8x8 transform intra:76.8% inter:63.1%
    x264 [info]: coded y, uvDC, uvAC intra: 93.3% 75.7% 50.5% inter: 27.0% 18.4% 2.6%
    x264 [info]: i16 v, h, dc, p: 30% 14% 12% 44%
    x264 [info]: i8 v, h, dc, ddl, ddr, vr, hd, vl, hu: 9% 7% 5% 11% 15% 15% 14% 12% 12%
    x264 [info]: i4 v, h, dc, ddl, ddr, vr, hd, vl, hu: 10% 8% 3% 10% 15% 15% 14% 13% 13%
    x264 [info]: i8c dc, h, v, p: 36% 27% 21% 16%
    x264 [info]: Weighted P-Frames: Y:4.1% UV:2.0%
    x264 [info]: ref P L0: 43.5% 10.5% 18.8% 6.8% 6.6% 4.3% 4.6% 2.2% 2.7% 0.1% 0.0%
    x264 [info]: ref B L0: 66.0% 13.8% 7.9% 4.2% 3.2% 2.8% 1.6% 0.5%
    x264 [info]: ref B L1: 92.3% 7.7%
    x264 [info]: kb/s:2199.44
    Скриншоты :


    Все одноименные релизы в Клубе


    Релиз подготовлен для просмотра наApple TV, iPad, iPhone, iPod Touch.
    Для просмотра данного релиза на компьютере с ОС Windows рекомендуется использоватьVLC media player


    Короче/Downsizing (2017) BDRip [576p] iPad
    Рейтинг →
     (голосов: 1, оценка 3/5, голосовать можно 1 раз )

    Другие торренты по теме:

  • Короче / Downsizing (2017) WEBRip [H.264 / 720p-LQ] [EN / KOR Sub]
  • Короче / Downsizing (2017) BDRip [H.264 / 1080p] [EN / EN Sub]
  • Короче / Downsizing (2017) HDRip
  • Короче / Downsizing (2017) BDRemux [H.264 / 1080p] [EN / EN, Fr, Sp, Po Sub]
  • Короче / Downsizing (2017) BDRip [H.264 / 1080p-LQ] [MVO]
  • Короче / Downsizing (2017) BDRip [H.264 / 1080p] [MVO] [PR]
  • Короче / Downsizing (2017) BDRip [H.264 / 720p] [MVO]
  • Короче / Downsizing (2017) BDRip [MVO]


    • Комментарии (0):

      Информация

      Информация

        Посетители, находящиеся в группе Гости, не могут оставлять комментарии в данной новости.

        ↓ Меню




        ↓ Опрос

        Вы добавили сайт в закладки?
        Да
        Нет


        Top 10 за месяц (Программы)