.
Авторизация | Регистрация
Хочешь лучшие торренты? Добавь свой email!
Добавить

Торрент скачать бесплатно

  • support: webmaster@btracker.org
» » Все деньги мира / All the Money in the World (2017) BDRip [480p] iPod торрент скачать бесплатно


    Все деньги мира / All the Money in the World (2017) BDRip [480p] iPod торрент скачать бесплатно

    Опубликовал: Админ | Дата: 3-04-2018, 05:00 | .torrent скачали: 0

    Все деньги мира / All the Money in the World (2017) BDRip [480p] iPodГод выпуска : 2017
    Производство : США
    Жанр : Триллер, драма, криминал, детектив, биография
    Продолжительность : 02: 12: 41
    Перевод : Дублированный(iTunes)
    Субтитры : Русские, Английские
    Режиссер : Ридли Скотт
    Актеры : Мишель Уильямс, Кристофер Пламмер, Марк Уолберг, Ромен Дюрис, Тимоти Хаттон, Чарли Пламмер, Чарли Шотуэлл, Эндрю Бакан, Марко Леонарди, Джузеппе Бонифати
    Мировая премьера : 18 декабря 2017

    Описание : Во всем мире не было человека богаче, чем Пол Гетти. Принадлежать к его роду — все равно что быть богом. Однако, когда в Риме неизвестные похищают его внука, нефтяной магнат, ко всеобщему шоку, наотрез отказывается платить выкуп. И тогда единственной надеждой для матери мальчика становится таинственный сотрудник службы безопасности самого Гетти…
    Качество : BDRip 480p
    Контейнер : M4V
    Видео : H.264, 640x356 анаморф 852х356, 2.40: 1, 1 300 Kbps, 23.976 (24000/1001) fps
    Аудио 1 : Русский/Дублированный (iTunes), AAC/2.0/128 Kbps/48.0 KHz
    Аудио 2 : Английский/Оригинальная дорожка , AAC/2.0/128 Kbps/48.0 KHz
    Аудио 3 : Украинский/Дублированный (iTunes), AAC/2.0/128 Kbps/48.0 KHz
    Код: выделить все

    Sort Name: All the Money In the World
    XID: Apple:vendor_id:2017-1041617
    contentID: 1327432331
    Copyright: © 2017 All The Money US, LLC. All Rights Reserved.
    Screenwriters: Дэвид Скарпа, Джон Пирсон
    Producers: Крис Кларк, Квентин Кертис, Дэн Фридкин
    Director: Ридли Скотт
    Cast: Мишель Уильямс, Кристофер Пламмер, Марк Уолберг, Ромен Дюрис, Тимоти Хаттон, Чарли Пламмер, Чарли Шотуэлл, Эндрю Бакан, Марко Леонарди, Джузеппе Бонифати
    Studio: Imperative Entertainment
    Rating Annotation: Rated R for language, some violence, disturbing images and brief drug content.
    Rating: 5
    Long Description: Во всем мире не было человека богаче, чем Пол Гетти. Принадлежать к его роду - все равно что быть богом. Однако, когда в Риме неизвестные похищают его внука, нефтяной магнат, ко всеобщему шоку, наотрез отказывается платить выкуп. И тогда единственной надеждой для матери мальчика становится таинственный сотрудник службы безопасности самого Гетти...
    Description: Во всем мире не было человека богаче, чем Пол Гетти. Принадлежать к его роду - все равно что быть богом. Однако, когда в Риме неизвестные похищают его внука, нефтяной магнат, ко всеобщему шоку, наотрез отказывается платить выкуп. И тогда единственной надеждой для матери мальчика становится таинственный сотрудник службы безопасности самого Гетти...
    Release Date: 2017-12-18T08:00:00Z
    Genre: Thriller
    Artist: Ridley Scott
    Name: All the Money In the World
    Код: выделить все

    General
    Complete name : /Users/imac/HandBrake/All.the.Money.in.the.World.(480p).(pk).m4v
    Format : MPEG-4
    Codec ID : M4V (M4V /M4A /mp42/isom)
    File size : 1.56 GiB
    Duration : 2h 12mn
    Overall bit rate mode : Variable
    Overall bit rate : 1 685 Kbps
    Movie name : All the Money In the World
    Performer : Ridley Scott
    Director : Ридли Скотт
    Actor : Мишель Уильямс/Кристофер Пламмер/Марк Уолберг/Ромен Дюрис/Тимоти Хаттон/Чарли Пламмер/Чарли Шотуэлл/Эндрю Бакан/Марко Леонарди/Джузеппе Бонифати
    Screenplay by : Дэвид Скарпа/Джон Пирсон
    Producer : Крис Кларк/Квентин Кертис/Дэн Фридкин
    Production studio : Imperative Entertainment
    Genre : Thriller
    ContentType : Short Film
    Description : Во всем мире не было человека богаче, чем Пол Гетти. Принадлежать к его роду - все равно что быть богом. Однако, когда в Риме неизвестные похищают его внука, нефтяной магнат, ко всеобщему шоку, наотрез отказывается платить выкуп. И тогда единственной надеждой для матери мальчика становится таинственный сотрудник службы безопасности самого Гетти...
    Recorded date : UTC 2017-12-18 08:00:00
    Encoded date : UTC 2018-04-01 14:25:33
    Tagged date : UTC 2018-04-01 14:26:42
    Copyright : © 2017 All The Money US, LLC. All Rights Reserved.
    Cover : Yes
    Rating : None
    Title/Sort : All the Money In the World
    LongDescription : Во всем мире не было человека богаче, чем Пол Гетти. Принадлежать к его роду - все равно что быть богом. Однако, когда в Риме неизвестные похищают его внука, нефтяной магнат, ко всеобщему шоку, наотрез отказывается платить выкуп. И тогда единственной надеждой для матери мальчика становится таинственный сотрудник службы безопасности самого Гетти...
    AppleStoreCatalogID : 1327432331
    Vendor : Apple:vendor_id:2017-1041617
    ContentRating : mpaa|R|400|Rated R for language, some violence, disturbing images and brief drug content.
    Video #1
    ID : 1
    Format : AVC
    Format/Info : Advanced Video Codec
    Format profile : Baseline@L3
    Format settings : 2 Ref Frames
    Format settings, CABAC : No
    Format settings, ReFrames : 2 frames
    Codec ID : avc1
    Codec ID/Info : Advanced Video Coding
    Duration : 2h 12mn
    Bit rate : 1 300 Kbps
    Width : 640 pixels
    Height : 356 pixels
    Display aspect ratio : 2.40:1
    Frame rate mode : Variable
    Frame rate : 23.976 (24000/1001) fps
    Minimum frame rate : 23.974 fps
    Maximum frame rate : 23.981 fps
    Color space : YUV
    Chroma subsampling : 4:2:0
    Bit depth : 8 bits
    Scan type : Progressive
    Bits/(Pixel*Frame) : 0.238
    Stream size : 1.20 GiB (77%)
    Title : Main Program
    Writing library : x264 core 148 r2708 86b7198
    Encoding settings : cabac=0/ref=2/deblock=1:0:0/analyse=0x1:0x111/me=umh/subme=6/psy=1/psy_rd=1.00:0.00/mixed_ref=1/me_range=16/chroma_me=1/trellis=0/8x8dct=0/cqm=0/deadzone=21, 11/fast_pskip=1/chroma_qp_offset=-2/threads=11/lookahead_threads=1/sliced_threads=0/nr=0/decimate=1/interlaced=0/bluray_compat=0/constrained_intra=0/bframes=0/weightp=0/keyint=240/keyint_min=24/scenecut=40/intra_refresh=0/rc_lookahead=40/rc=2pass/mbtree=1/bitrate=1300/ratetol=1.0/qcomp=0.60/qpmin=0/qpmax=69/qpstep=4/cplxblur=20.0/qblur=0.5/vbv_maxrate=5000/vbv_bufsize=5000/nal_hrd=none/filler=0/ip_ratio=1.40/aq=1:1.00
    Language : English
    Encoded date : UTC 2018-04-01 14:25:33
    Tagged date : UTC 2018-04-01 14:25:40
    Color range : Limited
    Color primaries : BT.709
    Transfer characteristics : BT.709
    Matrix coefficients : BT.709
    Menus : 7, 8
    Video #2
    ID : 8
    Format : JPEG
    Codec ID : jpeg
    Duration : 2h 12mn
    Bit rate mode : Variable
    Bit rate : 523 bps
    Width : 640 pixels
    Height : 267 pixels
    Display aspect ratio : 2.40:1
    Frame rate mode : Variable
    Frame rate : 0.002 fps
    Minimum frame rate : 0.001 fps
    Maximum frame rate : 0.005 fps
    Color space : YUV
    Chroma subsampling : 4:2:0
    Bit depth : 8 bits
    Compression mode : Lossy
    Bits/(Pixel*Frame) : 1.530
    Stream size : 511 KiB (0%)
    Title : Chapter Images
    Language : English
    Default : No
    Encoded date : UTC 2018-04-01 14:25:47
    Tagged date : UTC 2018-04-01 14:25:48
    Menu For : 1
    ColorSpace_ICC : RGB
    Audio #1
    ID : 2
    Format : AAC
    Format/Info : Advanced Audio Codec
    Format profile : LC
    Codec ID : mp4a-40-2
    Duration : 2h 12mn
    Source duration : 2h 12mn
    Bit rate mode : Variable
    Bit rate : 126 Kbps
    Maximum bit rate : 200 Kbps
    Channel(s) : 2 channels
    Channel positions : Front: L R
    Sampling rate : 48.0 KHz
    Frame rate : 46.875 fps (1024 SPF)
    Compression mode : Lossy
    Stream size : 119 MiB (7%)
    Source stream size : 119 MiB (7%)
    Title : Russian Stereo
    Language : Russian
    Default : Yes
    Alternate group : 1
    Encoded date : UTC 2018-04-01 14:25:33
    Tagged date : UTC 2018-04-01 14:25:44
    Audio #2
    ID : 3
    Format : AAC
    Format/Info : Advanced Audio Codec
    Format profile : LC
    Codec ID : mp4a-40-2
    Duration : 2h 12mn
    Source duration : 2h 12mn
    Bit rate mode : Variable
    Bit rate : 126 Kbps
    Maximum bit rate : 217 Kbps
    Channel(s) : 2 channels
    Channel positions : Front: L R
    Sampling rate : 48.0 KHz
    Frame rate : 46.875 fps (1024 SPF)
    Compression mode : Lossy
    Stream size : 120 MiB (7%)
    Source stream size : 120 MiB (7%)
    Title : English Stereo
    Language : English
    Default : No
    Alternate group : 1
    Encoded date : UTC 2018-04-01 14:25:33
    Tagged date : UTC 2018-04-01 14:25:44
    Audio #3
    ID : 4
    Format : AAC
    Format/Info : Advanced Audio Codec
    Format profile : LC
    Codec ID : mp4a-40-2
    Duration : 2h 12mn
    Source duration : 2h 12mn
    Bit rate mode : Variable
    Bit rate : 125 Kbps
    Maximum bit rate : 213 Kbps
    Channel(s) : 2 channels
    Channel positions : Front: L R
    Sampling rate : 48.0 KHz
    Frame rate : 46.875 fps (1024 SPF)
    Compression mode : Lossy
    Stream size : 119 MiB (7%)
    Source stream size : 119 MiB (7%)
    Title : Ukrainian Stereo
    Language : Ukrainian
    Default : No
    Alternate group : 1
    Encoded date : UTC 2018-04-01 14:25:33
    Tagged date : UTC 2018-04-01 14:25:44
    Text #1
    ID : 5
    Format : Timed Text
    Muxing mode : sbtl
    Codec ID : tx3g
    Duration : 2h 7mn
    Bit rate mode : Variable
    Bit rate : 97 bps
    Stream size : 90.3 KiB (0%)
    Title : Russian full
    Language : Russian
    Default : Yes
    Forced : No
    Alternate group : 2
    Encoded date : UTC 2018-04-01 14:25:33
    Tagged date : UTC 2018-04-01 14:25:44
    Text #2
    ID : 6
    Format : Timed Text
    Muxing mode : sbtl
    Codec ID : tx3g
    Duration : 2h 6mn
    Bit rate mode : Variable
    Bit rate : 54 bps
    Stream size : 49.9 KiB (0%)
    Title : English full
    Language : English
    Default : No
    Forced : No
    Alternate group : 2
    Encoded date : UTC 2018-04-01 14:25:33
    Tagged date : UTC 2018-04-01 14:25:44
    Menu #1
    00:00:00.000 : Chapter 1
    00:10:55.155 : Chapter 2
    00:19:10.358 : Chapter 3
    00:30:35.500 : Chapter 4
    00:39:27.907 : Chapter 5
    00:48:36.664 : Chapter 6
    00:55:26.156 : Chapter 7
    01:05:59.247 : Chapter 8
    01:15:27.606 : Chapter 9
    01:24:42.369 : Chapter 10
    01:28:20.587 : Chapter 11
    01:34:55.064 : Chapter 12
    01:42:14.170 : Chapter 13
    01:48:11.485 : Chapter 14
    01:56:07.252 : Chapter 15
    02:03:08.381 : Chapter 16
    Menu #2
    ID : 7
    Codec ID : text
    Duration : 2h 12mn
    Language : English
    Encoded date : UTC 2018-04-01 14:25:44
    Tagged date : UTC 2018-04-01 14:25:44
    Menu For : 1
    00:00:00.000 : Chapter 1
    00:10:55.155 : Chapter 2
    00:19:10.358 : Chapter 3
    00:30:35.500 : Chapter 4
    00:39:27.907 : Chapter 5
    00:48:36.664 : Chapter 6
    00:55:26.156 : Chapter 7
    01:05:59.247 : Chapter 8
    01:15:27.606 : Chapter 9
    01:24:42.369 : Chapter 10
    01:28:20.587 : Chapter 11
    01:34:55.064 : Chapter 12
    01:42:14.170 : Chapter 13
    01:48:11.485 : Chapter 14
    01:56:07.252 : Chapter 15
    02:03:08.381 : Chapter 16
    Bit rate mode : VBR
    Код: выделить все

    x264 [info]: frame I:2045 Avg QP:15.75 size: 30952
    x264 [info]: frame P:188851 Avg QP:19.15 size: 6506
    x264 [info]: mb I I16..4: 21.5% 0.0% 78.5%
    x264 [info]: mb P I16..4: 0.6% 0.0% 2.2% P16..4: 44.4% 18.7% 8.2% 0.0% 0.0% skip:25.8%
    x264 [info]: coded y, uvDC, uvAC intra: 66.9% 68.9% 43.7% inter: 25.8% 14.3% 2.8%
    x264 [info]: i16 v, h, dc, p: 53% 14% 8% 25%
    x264 [info]: i4 v, h, dc, ddl, ddr, vr, hd, vl, hu: 40% 12% 12% 5% 6% 8% 5% 7% 4%
    x264 [info]: i8c dc, h, v, p: 51% 13% 29% 6%
    x264 [info]: ref P L0: 72.6% 27.4%
    x264 [info]: kb/s:1298.08
    Скриншоты :


    Все одноименные релизы в Клубе


    Релиз подготовлен для просмотра наApple TV, iPad, iPhone, iPod Touch.
    Для просмотра данного релиза на компьютере с ОС Windows рекомендуется использоватьVLC media player


    Все деньги мира/All the Money in the World (2017) BDRip [480p] iPod
    Рейтинг →
     (голосов: 1, оценка 5/5, голосовать можно 1 раз )

    Другие торренты по теме:

  • Александр Щелоков | Деньги мира: занимательные факты, курьезы, истории (2011) [PDF] скачать через торрент бесплатно
  • Все деньги мира / All the Money in the World (2017) BDRemux [H.264 / 1080p] [EN / EN, Fr, Sp Sub]
  • Все деньги мира / All the Money in the World (2017) BDRip
  • Все деньги мира / All the Money in the World (2017) BDRip [H.264]
  • Все деньги мира / All the Money in the World (2017) BDRip
  • Все деньги мира / All the Money in the World (2017) BDRip
  • Все деньги мира / All the Money in the World (2017) BDRip [H.264 / 1080p]
  • Все деньги мира / All the Money in the World (2017) BDRemux [H.264 / 1080p]


    • Комментарии (0):

      Информация

      Информация

        Посетители, находящиеся в группе Гости, не могут оставлять комментарии в данной новости.

        ↓ Меню




        ↓ Опрос

        Вы добавили сайт в закладки?
        Да
        Нет


        Top 10 за месяц (Программы)