.
Авторизация | Регистрация
Хочешь лучшие торренты? Добавь свой email!
Добавить

Торрент скачать бесплатно

» » За гранью реальности (2018) WEB-DL [1080p] ATV торрент скачать бесплатно


    За гранью реальности (2018) WEB-DL [1080p] ATV торрент скачать бесплатно

    Опубликовал: Админ | Дата: 3-04-2018, 05:00 | .torrent скачали: 3

    За гранью реальности (2018) WEB-DL [1080p] ATVГод выпуска : 2018
    Производство : Россия
    Жанр : Приключения, фэнтези
    Продолжительность : 01: 42: 16
    Перевод : (Не требуется)
    Субтитры : Нет
    Режиссер : Александр Богуславский
    Актеры : Милош Бикович, Антонио Бандерас, Любовь Аксенова, Евгений Стычкин, Юрий Чурсин, Аристарх Венес, Петар Зекавица, Сергей Астахов, Никита Дювбанов, Михаил Михеев
    Премьера (РФ) : 1 марта 2018, Каропрокат

    Описание : Майкл, талантливый аферист, собирает команду людей с паранормальными способностями, чтобы ограбить казино. Однако все идет не по плану, и герои оказываются в смертельной опасности. Чтобы спасти их, Майклу придется действовать за гранью реальности — в загадочном мире подсознания, откуда проистекают сверхспособности его друзей.
    Качество : WEB-DL 1080p
    Контейнер : M4V
    Видео : H.264, 1920x806, 2.40: 1, 4 564 Kbps, 25.000 fps
    Аудио 1 : Русский/Оригинальная дорожка , AAC/2.0/160 Kbps/48.0 KHz
    Аудио 2 : Русский/Оригинальная дорожка , AC-3/5.1/384 Kbps/48.0 KHz
    Код: выделить все

    Sort Name: За гранью реальности
    XID: Apple:vendor_id:2018-961712
    contentID: 1360722240
    Copyright: © 2018 KINODANZ
    Screenwriters: Михаил Зубко, Александр Богуславский, Дмитрий Жигалов
    Producers: Виктор Денисюк, Евгений Мелентьев, Александр Куринский
    Director: Александр Богуславский
    Cast: Милош Бикович, Антонио Бандерас, Любовь Аксенова, Евгений Стычкин, Юрий Чурсин, Аристарх Венес, Петар Зекавица, Сергей Астахов, Никита Дювбанов, Михаил Михеев
    Studio: KINODANZ
    Rating: 134
    Long Description: Майкл, талантливый аферист, собирает команду людей с паранормальными способностями, чтобы ограбить казино. Однако все идет не по плану, и герои оказываются в смертельной опасности. Чтобы спасти их, Майклу придется действовать за гранью реальности — в загадочном мире подсознания, откуда проистекают сверхспособности его друзей.
    Description: Майкл, талантливый аферист, собирает команду людей с паранормальными способностями, чтобы ограбить казино. Однако все идет не по плану, и герои оказываются в смертельной опасности.
    Release Date: 2018-03-01T08:00:00Z
    Genre: Русское кино
    Artist: Александр Богуславский
    Name: За гранью реальности
    Код: выделить все

    General
    Complete name : /Users/imac/HandBrake/Za.granyu.realnosti.WEB-DL.1080p.m4v
    Format : MPEG-4
    Codec ID : M4V
    File size : 3.65 GiB
    Duration : 1h 42mn
    Overall bit rate mode : Variable
    Overall bit rate : 5 113 Kbps
    Movie name : За гранью реальности
    Performer : Александр Богуславский
    Director : Александр Богуславский
    Actor : Милош Бикович/Антонио Бандерас/Любовь Аксенова/Евгений Стычкин/Юрий Чурсин/Аристарх Венес/Петар Зекавица/Сергей Астахов/Никита Дювбанов/Михаил Михеев
    Screenplay by : Михаил Зубко/Александр Богуславский/Дмитрий Жигалов
    Producer : Виктор Денисюк/Евгений Мелентьев/Александр Куринский
    Production studio : KINODANZ
    Genre : Русское кино
    ContentType : Short Film
    Description : Майкл, талантливый аферист, собирает команду людей с паранормальными способностями, чтобы ограбить казино. Однако все идет не по плану, и герои оказываются в смертельной опасности.
    Recorded date : UTC 2018-03-01 08:00:00
    Encoded date : UTC 2018-04-01 22:55:39
    Tagged date : UTC 2018-04-01 22:56:32
    Copyright : © 2018 KINODANZ
    Cover : Yes
    Rating : None
    Title/Sort : За гранью реальности
    LongDescription : Майкл, талантливый аферист, собирает команду людей с паранормальными способностями, чтобы ограбить казино. Однако все идет не по плану, и герои оказываются в смертельной опасности. Чтобы спасти их, Майклу придется действовать за гранью реальности — в загадочном мире подсознания, откуда проистекают сверхспособности его друзей.
    AppleStoreCatalogID : 1360722240
    Vendor : Apple:vendor_id:2018-961712
    ContentRating : ru-movie|12+|200|
    Video #1
    ID : 1
    Format : AVC
    Format/Info : Advanced Video Codec
    Format profile : High@L4
    Format settings, CABAC : Yes
    Format settings, ReFrames : 5 frames
    Codec ID : avc1
    Codec ID/Info : Advanced Video Coding
    Duration : 1h 42mn
    Bit rate : 4 564 Kbps
    Width : 1 920 pixels
    Height : 806 pixels
    Display aspect ratio : 2.40:1
    Frame rate mode : Constant
    Frame rate : 25.000 fps
    Color space : YUV
    Chroma subsampling : 4:2:0
    Bit depth : 8 bits
    Scan type : Progressive
    Bits/(Pixel*Frame) : 0.118
    Stream size : 3.26 GiB (89%)
    Title : Main Program
    Language : Russian
    Encoded date : UTC 2018-04-01 22:55:39
    Tagged date : UTC 2018-04-01 22:55:46
    Color range : Limited
    Color primaries : BT.709
    Transfer characteristics : BT.709
    Matrix coefficients : BT.709
    Video #2
    ID : 5
    Format : JPEG
    Codec ID : jpeg
    Duration : 1h 42mn
    Bit rate mode : Variable
    Bit rate : 503 bps
    Width : 640 pixels
    Height : 268 pixels
    Display aspect ratio : 2.40:1
    Frame rate mode : Constant
    Frame rate : 0.002 fps
    Color space : YUV
    Chroma subsampling : 4:2:0
    Bit depth : 8 bits
    Compression mode : Lossy
    Bits/(Pixel*Frame) : 1.466
    Stream size : 368 KiB (0%)
    Title : Chapter Images
    Language : Russian
    Encoded date : UTC 2018-04-01 22:55:52
    Tagged date : UTC 2018-04-01 22:55:53
    Audio #1
    ID : 2
    Format : AAC
    Format/Info : Advanced Audio Codec
    Format profile : LC
    Codec ID : 40
    Duration : 1h 42mn
    Source duration : 1h 42mn
    Bit rate mode : Variable
    Bit rate : 159 Kbps
    Maximum bit rate : 222 Kbps
    Channel(s) : 2 channels
    Channel positions : Front: L R
    Sampling rate : 48.0 KHz
    Compression mode : Lossy
    Stream size : 116 MiB (3%)
    Source stream size : 116 MiB (3%)
    Title : Russian Stereo
    Language : Russian
    Encoded date : UTC 2018-04-01 22:55:39
    Tagged date : UTC 2018-04-01 22:55:48
    Audio #2
    ID : 3
    Format : AC-3
    Format/Info : Audio Coding 3
    Mode extension : CM (complete main)
    Format settings, Endianness : Big
    Codec ID : ac-3
    Duration : 1h 42mn
    Bit rate mode : Constant
    Bit rate : 384 Kbps
    Channel(s) : 6 channels
    Channel positions : Front: L C R, Side: L R, LFE
    Sampling rate : 48.0 KHz
    Bit depth : 16 bits
    Compression mode : Lossy
    Stream size : 281 MiB (8%)
    Title : Russian DD 5.1
    Language : Russian
    Encoded date : UTC 2018-04-01 22:55:39
    Tagged date : UTC 2018-04-01 22:55:46
    Menu #1
    00:00:00.000 : 1
    00:07:35.120 : 2
    00:15:02.920 : 3
    00:23:07.160 : 4
    00:32:05.440 : 5
    00:40:45.640 : 6
    00:48:56.480 : 7
    00:56:55.760 : 8
    01:05:57.800 : 9
    01:14:50.560 : 10
    01:23:06.760 : 11
    01:32:41.880 : 12
    Menu #2
    ID : 4
    Codec ID : text
    Duration : 1h 42mn
    Language : Russian
    Encoded date : UTC 2018-04-01 22:55:48
    Tagged date : UTC 2018-04-01 22:55:48
    00:00:00.000 : 1
    00:07:35.120 : 2
    00:15:02.920 : 3
    00:23:07.160 : 4
    00:32:05.440 : 5
    00:40:45.640 : 6
    00:48:56.480 : 7
    00:56:55.760 : 8
    01:05:57.800 : 9
    01:14:50.560 : 10
    01:23:06.760 : 11
    01:32:41.880 : 12
    Bit rate mode : VBR
    Скриншоты :


    Все одноименные релизы в Клубе


    Релиз подготовлен для просмотра наApple TV, iPad, iPhone, iPod Touch.
    Для просмотра данного релиза на компьютере с ОС Windows рекомендуется использоватьVLC media player


    За гранью реальности (2018) WEB-DL [1080p] ATV
    Рейтинг →
     (голосов: 1, оценка 3/5, голосовать можно 1 раз )

    Другие торренты по теме:

  • За гранью реальности (2018) TS [AD]
  • За гранью реальности (2018) WEB-DLRip
  • За гранью реальности (2018) WEB-DL [H.264 / 1080p-LQ]
  • За гранью реальности (2018) WEB-DLRip [H.264]
  • За гранью реальности (2018) WEB-DLRip [576p] iPad


    • Комментарии (0):

      Информация

      Информация

        Посетители, находящиеся в группе Гости, не могут оставлять комментарии в данной новости.

        ↓ Меню




        ↓ Опрос

        Вы добавили сайт в закладки?
        Да
        Нет


        Top 10 за месяц (Программы)