.
Авторизация | Регистрация
Хочешь лучшие торренты? Добавь свой email!
Добавить

Торрент скачать бесплатно

  • support: webmaster@btracker.org
» » Новые приключения Аладдина (мюзикл) от ALEXnROCK (2011) DVDRip торрент скачать бесплатно


    Новые приключения Аладдина (мюзикл) от ALEXnROCK (2011) DVDRip торрент скачать бесплатно

    Опубликовал: Админ | Дата: 20-05-2018, 05:00 | .torrent скачали: 2

    Новые приключения Аладдина (мюзикл) от ALEXnROCK (2011) DVDRipЖанр: Pop
    Год выпуска: 2011

    Описание

    В экранизации любимой всеми арабской сказки роль Аладдина досталась Оскару Кучере. По замыслу авторов, Аладдин – это… русский охранник Алеша, который волей случая попал в далекую страну, где и получил это имя и, конечно же, нашел свою царевну – великолепную Будур (Ани Лорак). Яркий и юморной мюзикл, с очень красивыми костюмами и декорациями. Видео прошло 11ти часовую реставрационную обработку. Звук оригинальный оставил, так как CD не нашел в сети. Да пребудет с нами качественная музыка! Все лучшее для вас. ALEXnROCK
    Продолжительность: 01: 40: 23
    Качество: DVDRip
    Видео : XviD, 720x408 (16: 9) 2500Kbps 25fps
    Аудио : Mp3 48000KHz, 2 ch, 256 Kbps
    Треклист:
    01. Все участники - Вступительная песня
    02. Сосо Павлиашвили - Это Восток
    03. Елена Воробей, Анастасия Стоцкая, Анна Семенович - Песня мамы
    04. Сергей Лазарев - Песня Принцессе
    05. Юрий Гальцев, Ефим Шифрин, Юрий Стоянов - Если б я был султан
    06. Верка Сердючка - Песня Джинна
    07. Игорь Маменко - Песня купца
    08. Пьер Нарцисс, Сергей Зверев, Обид Асомов - Всё включено
    09. Оскар Кучера, Ани Лорак - Песня Аладдина и Будур
    10. Гия Гагуа, Карен Аванесян, Юрий Аскаров - Страдаем
    11. Анастасия Стоцкая, Анна Семенович - Промашки могут быть
    12. Оскар Кучера, Елена Воробей - Мальчик хочет в Багдад
    13. Филипп Киркоров - Лейла
    14. Новые русские бабки - Песня принцесс
    15. НиколайБасков - Как восхитительны в России женихи
    16. Юрий Стоянов - Песня стюардессы
    17. Лолита и и Дискотека Авария - Песня разбойников
    18. Лолита, Юрий Стоянов - Дуэт
    19. Все участники - Финальная песня

    Общее
    Полное имя : Новые приключения Аладдина.avi
    Формат : AVI
    Формат/Информация : Audio Video Interleave
    Размер файла : 1, 94 Гбайт
    Продолжительность : 1 ч. 40 м.
    Общий поток : 2764 Кбит/сек
    Программа кодирования : VirtualDubMod 1.5.10.3 |www.virtualdub-fr.org|| (build 2550/release)
    Библиотека кодирования : VirtualDubMod build 2550/release
    Видео
    Идентификатор : 0
    Формат : MPEG-4 Visual
    Профиль формата : Advanced Simple@L5
    Настройки формата : BVOP2
    Параметр BVOP формата : 2
    Параметр QPel формата : Нет
    Параметр GMC формата : Без точки перехода
    Параметр матрицы формата : Default (H.263)
    Режим смешивания : Сжатый битовый поток
    Идентификатор кодека : XVID
    Идентификатор кодека/Подсказка : XviD
    Продолжительность : 1 ч. 40 м.
    Битрейт : 2498 Кбит/сек
    Ширина : 720 пикселей
    Высота : 408 пикселей
    Соотношение сторон : 16: 9
    Частота кадров : 25, 000 кадров/сек
    Цветовое пространство : YUV
    Субдискретизация насыщенности : 4: 2: 0
    Битовая глубина : 8 бит
    Тип развёртки : Прогрессивная
    Метод сжатия : С потерями
    Бит/(Пиксели*Кадры) : 0.340
    Размер потока : 1, 75 Гбайт (90%)
    Библиотека кодирования : XviD 1.2.1 (UTC 2008-12-04)
    Аудио
    Идентификатор : 1
    Формат : MPEG Audio
    Версия формата : Version 1
    Профиль формата : Layer 3
    Идентификатор кодека : 55
    Идентификатор кодека/Подсказка : MP3
    Продолжительность : 1 ч. 40 м.
    Вид битрейта : Постоянный
    Битрейт : 256 Кбит/сек
    Каналы : 2 канала
    Частота : 48, 0 КГц
    Метод сжатия : С потерями
    Размер потока : 184 Мбайт (9%)
    Выравнивание : Соединение по промежуткам
    Продолжительность промежутка : 40 мс. (1, 00 видеокадр)
    Время предзагрузки промежутка : 504 мс.
    Библиотека кодирования : LAME3.99r
    Настройки программы : -m s -V 4 -q 0 -lowpass 19.7

    Скриншоты для ознакомления



    Все одноименные релизы в Клубе
    Время раздачи: 24/7 (до появления первых 3-5 скачавших)


    Новые приключения Аладдина (мюзикл) от ALEXnROCK (2011) DVDRip
    Рейтинг →
     (голосов: 1, оценка 4/5, голосовать можно 1 раз )

    Другие торренты по теме:

  • Новые приключения старой Кристин / The New Adventures of Old Christine (2009) HDTVRip [сезон 5, серии 1-5 из 21] ViruseProject (обновляемая) скачать через торрент бесплатно
  • Неизвестная версия: Новые приключения неуловимых (2008) SATRip скачать через торрент бесплатно
  • Новые приключения Ниро Вульфа и Арчи Гудвина (2004) DVDRip (4 фильма) [H.264] скачать через торрент бесплатно
  • Максим Алёшин | Новые приключения деревянной девочки, или Возвращение Буратины (2012) [FB2]
  • Смешарики 215 серий + Пин-код, Новые приключения, Смешалости 121 серий в 3D + Азбуки 54 серии [без заставок / титр (3D)] (2003-2015) DVDRip [обновляемая]
  • Новые приключения Билла и Теда / Bill & Teds Bogus Journey (1991) WEB-DLRip [H.264] скачать через торрент бесплатно
  • Новые приключения кота Леопольда. Новогодняя ёлка (2015) WEBRip [H.264 / 720p-LQ] скачать через торрент бесплатно
  • Новые приключения кота Леопольда. Новогодняя ёлка (2015) WEBRip [H.264 / 1080p-LQ] скачать через торрент бесплатно


    • Комментарии (0):

      Информация

      Информация

        Посетители, находящиеся в группе Гости, не могут оставлять комментарии в данной новости.

        ↓ Меню




        ↓ Опрос

        Вы добавили сайт в закладки?
        Да
        Нет


        Top 10 за месяц (Другое)