.
Авторизация | Регистрация
Хочешь лучшие торренты? Добавь свой email!
Добавить

Торрент скачать бесплатно

  • support: webmaster@btracker.org
» » Yello - Video Collection от ALEXnROCK (2018) WEBRip [H.264 / 720p-LQ] торрент скачать бесплатно


    Yello - Video Collection от ALEXnROCK (2018) WEBRip [H.264 / 720p-LQ] торрент скачать бесплатно

    Опубликовал: Админ | Дата: 18-05-2018, 05:00 | .torrent скачали: 4

    Yello - Video Collection от ALEXnROCK (2018) WEBRip [H.264 / 720p-LQ]Жанр: Pop
    Год выпуска: 2018

    Описание

    Это полное собрание клипов швецарского коллектива, кроме 2х которые не удалось найти в приличном качестве. Собрание делал на заказ. Да пребудет с нами качественная музыка! Все лучшее для вас. ALEXnROCK
    Обложка и блин для диска в раздаче.
    Продолжительность: 02: 41: 38
    Качество: DVDRip
    Видео : AVC/H.264, 1280x720 (16x9) 1280x936 (4x3) 5200kbps
    Аудио : PCM 2.0, 48KHz, 1536kbps
    Треклист:
    00 Yello - Intro
    01 Yello - Evening\'s Young
    02 Yello - Pinball Cha Cha
    03 Yello - I Love You
    04 Yello - Lost Again
    05 Yello - Bostich
    06 Yello - Vicious Games
    07 Yello - Desire
    08 Yello - Goldrush
    09 Yello - Oh Yeah
    10 Yello - Call It Love
    11 Yello - Rhythm Divine
    12 Yello - Race
    13 Yello - Tied Up
    14 Yello - Of Course I\'m Lying
    15 Yello - Rubberbandman
    16 Yello - Whos\' Gone
    17 Yello - Do It
    18 Yello - Drive Driven
    19 Yello - Jungle Bill
    20 Yello - Santa Clause
    21 Yello - Westbam\'s - Bostich
    22 Yello - To The Sea
    23 Yello - On Track
    24 Yello - Planet Dada
    25 Yello - Till Tomorrow
    26 Yello - Expert
    27 Yello - You Better Hide
    28 Yello - Out Of Dawn
    29 Yello - Bostich (reflected)
    30 Yello - Kiss In Blue
    31 Yello - Vertical Vision
    32 Yello - Tiger Dust
    33 Yello - Tangier Blue
    34 Yello - Oh Yeah 2009
    35 Yello - The Race 2008
    36 Yello - Tool of Love (Live in Berlin 2017)
    37 Yello - 30\'000 Days (Live in Berlin 2017)
    38 Yello - Limbo (Live in Berlin 2017)
    39 Yello - Tied Up (Live in Berlin 2017)
    40 Yello - Liquid Lies (Live in Berlin 2017)
    41 Yello - The Evening\'s Young (Live in Berlin 2017)
    42 Yello - Starlight Scene (Live in Berlin 2017)
    43 Yello - The Time Tunnel (Live in Berlin 2017)

    Общее
    Уникальный идентификатор : 181015546888336393643473632181947347225 (0x882E5382D6AB6698AC725CA08AF63119)
    Полное имя : Yello - Video Collection from ALEXnROCK mkv0 Yello - Intro.mkv
    Формат : Matroska
    Версия формата : Version 4/Version 2
    Размер файла : 87, 5 Мбайт
    Продолжительность : 1 м. 50 с.
    Общий поток : 6647 Кбит/сек
    Дата кодирования : UTC 2018-05-15 13: 17: 25
    Программа кодирования : mkvmerge v9.8.0 (\'Kuglblids\') 64bit
    Библиотека кодирования : libebml v1.3.4 + libmatroska v1.4.5
    Видео
    Идентификатор : 1
    Формат : AVC
    Формат/Информация : Advanced Video Codec
    Профиль формата : High@L4
    Настройки формата : CABAC/8 Ref Frames
    Параметр CABAC формата : Да
    Параметр RefFrames формата : 8 кадров
    Идентификатор кодека : V_MPEG4/ISO/AVC
    Продолжительность : 1 м. 50 с.
    Битрейт : 5200 Кбит/сек
    Ширина : 1280 пикселей
    Высота : 720 пикселей
    Соотношение сторон : 16: 9
    Режим частоты кадров : Постоянный
    Частота кадров : 29, 970 (30000/1001) кадров/сек
    Цветовое пространство : YUV
    Субдискретизация насыщенности : 4: 2: 0
    Битовая глубина : 8 бит
    Тип развёртки : Прогрессивная
    Бит/(Пиксели*Кадры) : 0.188
    Размер потока : 67, 2 Мбайт (77%)
    Библиотека кодирования : x264 core 146 r2538 121396c
    Настройки программы : cabac=1/ref=8/deblock=1: -1: -1/analyse=0x3: 0x113/me=umh/subme=7/psy=1/psy_rd=1.00: 0.20/mixed_ref=1/me_range=16/chroma_me=1/trellis=2/8x8dct=1/cqm=0/deadzone=21, 11/fast_pskip=0/chroma_qp_offset=-3/threads=12/lookahead_threads=2/sliced_threads=0/nr=0/decimate=0/interlaced=0/bluray_compat=0/constrained_intra=0/bframes=3/b_pyramid=2/b_adapt=2/b_bias=0/direct=3/weightb=1/open_gop=0/weightp=2/keyint=250/keyint_min=25/scenecut=40/intra_refresh=0/rc_lookahead=50/rc=2pass/mbtree=1/bitrate=5200/ratetol=1.0/qcomp=0.60/qpmin=0/qpmax=69/qpstep=4/cplxblur=20.0/qblur=0.5/vbv_maxrate=14000/vbv_bufsize=14000/nal_hrd=none/filler=0/ip_ratio=1.40/aq=1: 1.00
    Default : Да
    Forced : Нет
    Аудио
    Идентификатор : 2
    Формат : PCM
    Идентификатор кодека : A_PCM/INT/LIT
    Продолжительность : 1 м. 50 с.
    Вид битрейта : Постоянный
    Битрейт : 1536 Кбит/сек
    Каналы : 2 канала
    Частота : 48, 0 КГц
    Частота кадров : 32, 000 кадра/сек (1500 SPF)
    Битовая глубина : 16 бит
    Размер потока : 20, 2 Мбайт (23%)
    Default : Да
    Forced : Нет
    Общее
    Уникальный идентификатор : 247977660474282893502944968435700017714 (0xBA8EC29B76180B08AB7A1B5CDA132A32)
    Полное имя : E: YelloYello - Video Collection from ALEXnROCK mkv1 Yello - Evening\'s Young.mkv
    Формат : Matroska
    Версия формата : Version 4/Version 2
    Размер файла : 144 Мбайт
    Продолжительность : 2 м. 58 с.
    Общий поток : 6740 Кбит/сек
    Дата кодирования : UTC 2018-05-06 15: 52: 30
    Программа кодирования : mkvmerge v9.8.0 (\'Kuglblids\') 64bit
    Библиотека кодирования : libebml v1.3.4 + libmatroska v1.4.5
    Видео
    Идентификатор : 1
    Формат : AVC
    Формат/Информация : Advanced Video Codec
    Профиль формата : High@L4
    Настройки формата : CABAC/8 Ref Frames
    Параметр CABAC формата : Да
    Параметр RefFrames формата : 8 кадров
    Идентификатор кодека : V_MPEG4/ISO/AVC
    Продолжительность : 2 м. 58 с.
    Битрейт : 5200 Кбит/сек
    Ширина : 1280 пикселей
    Высота : 936 пикселей
    Соотношение сторон : 4: 3
    Режим частоты кадров : Постоянный
    Частота кадров : 25, 000 кадров/сек
    Цветовое пространство : YUV
    Субдискретизация насыщенности : 4: 2: 0
    Битовая глубина : 8 бит
    Тип развёртки : Прогрессивная
    Бит/(Пиксели*Кадры) : 0.174
    Размер потока : 111 Мбайт (77%)
    Библиотека кодирования : x264 core 146 r2538 121396c
    Настройки программы : cabac=1/ref=8/deblock=1: -1: -1/analyse=0x3: 0x113/me=umh/subme=7/psy=1/psy_rd=1.00: 0.20/mixed_ref=1/me_range=16/chroma_me=1/trellis=2/8x8dct=1/cqm=0/deadzone=21, 11/fast_pskip=0/chroma_qp_offset=-3/threads=12/lookahead_threads=2/sliced_threads=0/nr=0/decimate=0/interlaced=0/bluray_compat=0/constrained_intra=0/bframes=3/b_pyramid=2/b_adapt=2/b_bias=0/direct=3/weightb=1/open_gop=0/weightp=2/keyint=250/keyint_min=25/scenecut=40/intra_refresh=0/rc_lookahead=50/rc=2pass/mbtree=1/bitrate=5200/ratetol=1.0/qcomp=0.60/qpmin=0/qpmax=69/qpstep=4/cplxblur=20.0/qblur=0.5/vbv_maxrate=14000/vbv_bufsize=14000/nal_hrd=none/filler=0/ip_ratio=1.40/aq=1: 1.00
    Default : Да
    Forced : Нет
    Аудио
    Идентификатор : 2
    Формат : PCM
    Идентификатор кодека : A_PCM/INT/LIT
    Продолжительность : 2 м. 58 с.
    Вид битрейта : Постоянный
    Битрейт : 1536 Кбит/сек
    Каналы : 2 канала
    Частота : 48, 0 КГц
    Частота кадров : 32, 003 кадра/сек (1500 SPF)
    Битовая глубина : 16 бит
    Размер потока : 32, 7 Мбайт (23%)
    Default : Да
    Forced : Нет
    Общее
    Уникальный идентификатор : 175723366571151393507765427493114372899 (0x843316E0594D3C6E8C3FD8E81A126323)
    Полное имя : E: YelloYello - Video Collection from ALEXnROCK mkv2 Yello - Pinball Cha Cha.mkv
    Формат : Matroska
    Версия формата : Version 2
    Размер файла : 171 Мбайт
    Продолжительность : 3 м. 33 с.
    Общий поток : 6743 Кбит/сек
    Дата кодирования : UTC 2018-05-06 16: 46: 00
    Программа кодирования : mkvmerge v7.8.0 (\'River Man\') 32bit built on Apr 3 2015 12: 11: 22
    Библиотека кодирования : libebml v1.3.1 + libmatroska v1.4.2
    Видео
    Идентификатор : 1
    Формат : AVC
    Формат/Информация : Advanced Video Codec
    Профиль формата : High@L4
    Настройки формата : CABAC/8 Ref Frames
    Параметр CABAC формата : Да
    Параметр RefFrames формата : 8 кадров
    Идентификатор кодека : V_MPEG4/ISO/AVC
    Продолжительность : 3 м. 33 с.
    Номинальный битрейт : 5200 Кбит/сек
    Ширина : 1280 пикселей
    Высота : 936 пикселей
    Соотношение сторон : 4: 3
    Режим частоты кадров : Постоянный
    Частота кадров : 25, 000 кадров/сек
    Цветовое пространство : YUV
    Субдискретизация насыщенности : 4: 2: 0
    Битовая глубина : 8 бит
    Тип развёртки : Прогрессивная
    Бит/(Пиксели*Кадры) : 0.174
    Библиотека кодирования : x264 core 146 r2538 121396c
    Настройки программы : cabac=1/ref=8/deblock=1: -1: -1/analyse=0x3: 0x113/me=umh/subme=7/psy=1/psy_rd=1.00: 0.20/mixed_ref=1/me_range=16/chroma_me=1/trellis=2/8x8dct=1/cqm=0/deadzone=21, 11/fast_pskip=0/chroma_qp_offset=-3/threads=12/lookahead_threads=2/sliced_threads=0/nr=0/decimate=0/interlaced=0/bluray_compat=0/constrained_intra=0/bframes=3/b_pyramid=2/b_adapt=2/b_bias=0/direct=3/weightb=1/open_gop=0/weightp=2/keyint=250/keyint_min=25/scenecut=40/intra_refresh=0/rc_lookahead=50/rc=2pass/mbtree=1/bitrate=5200/ratetol=1.0/qcomp=0.60/qpmin=0/qpmax=69/qpstep=4/cplxblur=20.0/qblur=0.5/vbv_maxrate=14000/vbv_bufsize=14000/nal_hrd=none/filler=0/ip_ratio=1.40/aq=1: 1.00
    Default : Да
    Forced : Нет
    Аудио
    Идентификатор : 2
    Формат : PCM
    Идентификатор кодека : A_PCM/INT/LIT
    Продолжительность : 3 м. 33 с.
    Вид битрейта : Постоянный
    Каналы : 2 канала
    Частота : 48, 0 КГц
    Битовая глубина : 16 бит
    Default : Да
    Forced : Нет
    Общее
    Уникальный идентификатор : 237170214709820625313975540468754653340 (0xB26D5264477A850798AD9CBB2A07A09C)
    Полное имя : E: YelloYello - Video Collection from ALEXnROCK mkv3 Yello - I Love You.mkv
    Формат : Matroska
    Версия формата : Version 2
    Размер файла : 160 Мбайт
    Продолжительность : 3 м. 18 с.
    Общий поток : 6753 Кбит/сек
    Дата кодирования : UTC 2018-05-06 18: 26: 23
    Программа кодирования : mkvmerge v7.8.0 (\'River Man\') 32bit built on Apr 3 2015 12: 11: 22
    Библиотека кодирования : libebml v1.3.1 + libmatroska v1.4.2
    Видео
    Идентификатор : 1
    Формат : AVC
    Формат/Информация : Advanced Video Codec
    Профиль формата : High@L4
    Настройки формата : CABAC/8 Ref Frames
    Параметр CABAC формата : Да
    Параметр RefFrames формата : 8 кадров
    Идентификатор кодека : V_MPEG4/ISO/AVC
    Продолжительность : 3 м. 18 с.
    Номинальный битрейт : 5200 Кбит/сек
    Ширина : 1280 пикселей
    Высота : 936 пикселей
    Соотношение сторон : 4: 3
    Режим частоты кадров : Постоянный
    Частота кадров : 25, 000 кадров/сек
    Цветовое пространство : YUV
    Субдискретизация насыщенности : 4: 2: 0
    Битовая глубина : 8 бит
    Тип развёртки : Прогрессивная
    Бит/(Пиксели*Кадры) : 0.174
    Библиотека кодирования : x264 core 146 r2538 121396c
    Настройки программы : cabac=1/ref=8/deblock=1: -1: -1/analyse=0x3: 0x113/me=umh/subme=7/psy=1/psy_rd=1.00: 0.20/mixed_ref=1/me_range=16/chroma_me=1/trellis=2/8x8dct=1/cqm=0/deadzone=21, 11/fast_pskip=0/chroma_qp_offset=-3/threads=12/lookahead_threads=2/sliced_threads=0/nr=0/decimate=0/interlaced=0/bluray_compat=0/constrained_intra=0/bframes=3/b_pyramid=2/b_adapt=2/b_bias=0/direct=3/weightb=1/open_gop=0/weightp=2/keyint=250/keyint_min=25/scenecut=40/intra_refresh=0/rc_lookahead=50/rc=2pass/mbtree=1/bitrate=5200/ratetol=1.0/qcomp=0.60/qpmin=0/qpmax=69/qpstep=4/cplxblur=20.0/qblur=0.5/vbv_maxrate=14000/vbv_bufsize=14000/nal_hrd=none/filler=0/ip_ratio=1.40/aq=1: 1.00
    Default : Да
    Forced : Нет
    Аудио
    Идентификатор : 2
    Формат : PCM
    Идентификатор кодека : A_PCM/INT/LIT
    Продолжительность : 3 м. 18 с.
    Вид битрейта : Постоянный
    Каналы : 2 канала
    Частота : 48, 0 КГц
    Битовая глубина : 16 бит
    Default : Да
    Forced : Нет
    Общее
    Уникальный идентификатор : 187895388232308112324585888156606807176 (0x8D5B55E0C3C1927B97FA94E4D1383C88)
    Полное имя : E: YelloYello - Video Collection from ALEXnROCK mkv4 Yello - Lost Again.mkv
    Формат : Matroska
    Версия формата : Version 2
    Размер файла : 185 Мбайт
    Продолжительность : 3 м. 50 с.
    Общий поток : 6738 Кбит/сек
    Дата кодирования : UTC 2018-05-06 19: 44: 51
    Программа кодирования : mkvmerge v7.8.0 (\'River Man\') 32bit built on Apr 3 2015 12: 11: 22
    Библиотека кодирования : libebml v1.3.1 + libmatroska v1.4.2
    Видео
    Идентификатор : 1
    Формат : AVC
    Формат/Информация : Advanced Video Codec
    Профиль формата : High@L4
    Настройки формата : CABAC/8 Ref Frames
    Параметр CABAC формата : Да
    Параметр RefFrames формата : 8 кадров
    Идентификатор кодека : V_MPEG4/ISO/AVC
    Продолжительность : 3 м. 50 с.
    Номинальный битрейт : 5200 Кбит/сек
    Ширина : 1280 пикселей
    Высота : 936 пикселей
    Соотношение сторон : 4: 3
    Режим частоты кадров : Постоянный
    Частота кадров : 25, 000 кадров/сек
    Цветовое пространство : YUV
    Субдискретизация насыщенности : 4: 2: 0
    Битовая глубина : 8 бит
    Тип развёртки : Прогрессивная
    Бит/(Пиксели*Кадры) : 0.174
    Библиотека кодирования : x264 core 146 r2538 121396c
    Настройки программы : cabac=1/ref=8/deblock=1: -1: -1/analyse=0x3: 0x113/me=umh/subme=7/psy=1/psy_rd=1.00: 0.20/mixed_ref=1/me_range=16/chroma_me=1/trellis=2/8x8dct=1/cqm=0/deadzone=21, 11/fast_pskip=0/chroma_qp_offset=-3/threads=12/lookahead_threads=2/sliced_threads=0/nr=0/decimate=0/interlaced=0/bluray_compat=0/constrained_intra=0/bframes=3/b_pyramid=2/b_adapt=2/b_bias=0/direct=3/weightb=1/open_gop=0/weightp=2/keyint=250/keyint_min=25/scenecut=40/intra_refresh=0/rc_lookahead=50/rc=2pass/mbtree=1/bitrate=5200/ratetol=1.0/qcomp=0.60/qpmin=0/qpmax=69/qpstep=4/cplxblur=20.0/qblur=0.5/vbv_maxrate=14000/vbv_bufsize=14000/nal_hrd=none/filler=0/ip_ratio=1.40/aq=1: 1.00
    Default : Да
    Forced : Нет
    Аудио
    Идентификатор : 2
    Формат : PCM
    Идентификатор кодека : A_PCM/INT/LIT
    Продолжительность : 3 м. 50 с.
    Вид битрейта : Постоянный
    Каналы : 2 канала
    Частота : 48, 0 КГц
    Битовая глубина : 16 бит
    Default : Да
    Forced : Нет
    Общее
    Уникальный идентификатор : 181417020921545967765444418871262414201 (0x887BA5B58BF5D4B38C6B3ACC66478579)
    Полное имя : E: YelloYello - Video Collection from ALEXnROCK mkv5 Yello - Bostich.mkv
    Формат : Matroska
    Версия формата : Version 4/Version 2
    Размер файла : 157 Мбайт
    Продолжительность : 3 м. 15 с.
    Общий поток : 6741 Кбит/сек
    Дата кодирования : UTC 2018-05-06 21: 01: 43
    Программа кодирования : mkvmerge v9.8.0 (\'Kuglblids\') 64bit
    Библиотека кодирования : libebml v1.3.4 + libmatroska v1.4.5
    Видео
    Идентификатор : 1
    Формат : AVC
    Формат/Информация : Advanced Video Codec
    Профиль формата : High@L4
    Настройки формата : CABAC/8 Ref Frames
    Параметр CABAC формата : Да
    Параметр RefFrames формата : 8 кадров
    Идентификатор кодека : V_MPEG4/ISO/AVC
    Продолжительность : 3 м. 15 с.
    Битрейт : 5200 Кбит/сек
    Ширина : 1280 пикселей
    Высота : 936 пикселей
    Соотношение сторон : 4: 3
    Режим частоты кадров : Постоянный
    Частота кадров : 25, 000 кадров/сек
    Цветовое пространство : YUV
    Субдискретизация насыщенности : 4: 2: 0
    Битовая глубина : 8 бит
    Тип развёртки : Прогрессивная
    Бит/(Пиксели*Кадры) : 0.174
    Размер потока : 121 Мбайт (77%)
    Библиотека кодирования : x264 core 146 r2538 121396c
    Настройки программы : cabac=1/ref=8/deblock=1: -1: -1/analyse=0x3: 0x113/me=umh/subme=7/psy=1/psy_rd=1.00: 0.20/mixed_ref=1/me_range=16/chroma_me=1/trellis=2/8x8dct=1/cqm=0/deadzone=21, 11/fast_pskip=0/chroma_qp_offset=-3/threads=12/lookahead_threads=2/sliced_threads=0/nr=0/decimate=0/interlaced=0/bluray_compat=0/constrained_intra=0/bframes=3/b_pyramid=2/b_adapt=2/b_bias=0/direct=3/weightb=1/open_gop=0/weightp=2/keyint=250/keyint_min=25/scenecut=40/intra_refresh=0/rc_lookahead=50/rc=2pass/mbtree=1/bitrate=5200/ratetol=1.0/qcomp=0.60/qpmin=0/qpmax=69/qpstep=4/cplxblur=20.0/qblur=0.5/vbv_maxrate=14000/vbv_bufsize=14000/nal_hrd=none/filler=0/ip_ratio=1.40/aq=1: 1.00
    Default : Да
    Forced : Нет
    Аудио
    Идентификатор : 2
    Формат : PCM
    Идентификатор кодека : A_PCM/INT/LIT
    Продолжительность : 3 м. 15 с.
    Вид битрейта : Постоянный
    Битрейт : 1536 Кбит/сек
    Каналы : 2 канала
    Частота : 48, 0 КГц
    Частота кадров : 32, 002 кадра/сек (1500 SPF)
    Битовая глубина : 16 бит
    Размер потока : 35, 7 Мбайт (23%)
    Default : Да
    Forced : Нет
    Общее
    Уникальный идентификатор : 225724300828358932377655032503735810454 (0xA9D0EB448269D579BE2544AFFC45F996)
    Полное имя : E: YelloYello - Video Collection from ALEXnROCK mkv6 Yello - Vicious Games.mkv
    Формат : Matroska
    Версия формата : Version 2
    Размер файла : 172 Мбайт
    Продолжительность : 3 м. 34 с.
    Общий поток : 6745 Кбит/сек
    Дата кодирования : UTC 2018-05-07 15: 05: 49
    Программа кодирования : mkvmerge v7.8.0 (\'River Man\') 32bit built on Apr 3 2015 12: 11: 22
    Библиотека кодирования : libebml v1.3.1 + libmatroska v1.4.2
    Видео
    Идентификатор : 1
    Формат : AVC
    Формат/Информация : Advanced Video Codec
    Профиль формата : High@L4
    Настройки формата : CABAC/8 Ref Frames
    Параметр CABAC формата : Да
    Параметр RefFrames формата : 8 кадров
    Идентификатор кодека : V_MPEG4/ISO/AVC
    Продолжительность : 3 м. 34 с.
    Номинальный битрейт : 5200 Кбит/сек
    Ширина : 1280 пикселей
    Высота : 944 пикселя
    Соотношение сторон : 4: 3
    Режим частоты кадров : Постоянный
    Частота кадров : 25, 000 кадров/сек
    Цветовое пространство : YUV
    Субдискретизация насыщенности : 4: 2: 0
    Битовая глубина : 8 бит
    Тип развёртки : Прогрессивная
    Бит/(Пиксели*Кадры) : 0.172
    Библиотека кодирования : x264 core 146 r2538 121396c
    Настройки программы : cabac=1/ref=8/deblock=1: -1: -1/analyse=0x3: 0x113/me=umh/subme=7/psy=1/psy_rd=1.00: 0.20/mixed_ref=1/me_range=16/chroma_me=1/trellis=2/8x8dct=1/cqm=0/deadzone=21, 11/fast_pskip=0/chroma_qp_offset=-3/threads=12/lookahead_threads=2/sliced_threads=0/nr=0/decimate=0/interlaced=0/bluray_compat=0/constrained_intra=0/bframes=3/b_pyramid=2/b_adapt=2/b_bias=0/direct=1/weightb=1/open_gop=0/weightp=2/keyint=250/keyint_min=25/scenecut=40/intra_refresh=0/rc_lookahead=50/rc=abr/mbtree=1/bitrate=5200/ratetol=1.0/qcomp=0.60/qpmin=0/qpmax=69/qpstep=4/vbv_maxrate=14000/vbv_bufsize=14000/nal_hrd=none/filler=0/ip_ratio=1.40/aq=1: 1.00
    Default : Да
    Forced : Нет
    Аудио
    Идентификатор : 2
    Формат : PCM
    Идентификатор кодека : A_PCM/INT/LIT
    Продолжительность : 3 м. 34 с.
    Вид битрейта : Постоянный
    Каналы : 2 канала
    Частота : 48, 0 КГц
    Битовая глубина : 16 бит
    Default : Да
    Forced : Нет
    Общее
    Уникальный идентификатор : 208981323197159324981260132204519498859 (0x9D3856BCAA60809A95C7791118BA246B)
    Полное имя : E: YelloYello - Video Collection from ALEXnROCK mkv7 Yello - Desire.mkv
    Формат : Matroska
    Версия формата : Version 2
    Размер файла : 203 Мбайт
    Продолжительность : 4 м. 13 с.
    Общий поток : 6740 Кбит/сек
    Дата кодирования : UTC 2018-05-07 14: 19: 23
    Программа кодирования : mkvmerge v7.8.0 (\'River Man\') 32bit built on Apr 3 2015 12: 11: 22
    Библиотека кодирования : libebml v1.3.1 + libmatroska v1.4.2
    Видео
    Идентификатор : 1
    Формат : AVC
    Формат/Информация : Advanced Video Codec
    Профиль формата : High@L4
    Настройки формата : CABAC/8 Ref Frames
    Параметр CABAC формата : Да
    Параметр RefFrames формата : 8 кадров
    Идентификатор кодека : V_MPEG4/ISO/AVC
    Продолжительность : 4 м. 13 с.
    Номинальный битрейт : 5200 Кбит/сек
    Ширина : 1280 пикселей
    Высота : 944 пикселя
    Соотношение сторон : 4: 3
    Режим частоты кадров : Постоянный
    Частота кадров : 25, 000 кадров/сек
    Цветовое пространство : YUV
    Субдискретизация насыщенности : 4: 2: 0
    Битовая глубина : 8 бит
    Тип развёртки : Прогрессивная
    Бит/(Пиксели*Кадры) : 0.172
    Библиотека кодирования : x264 core 146 r2538 121396c
    Настройки программы : cabac=1/ref=8/deblock=1: -1: -1/analyse=0x3: 0x113/me=umh/subme=7/psy=1/psy_rd=1.00: 0.20/mixed_ref=1/me_range=16/chroma_me=1/trellis=2/8x8dct=1/cqm=0/deadzone=21, 11/fast_pskip=0/chroma_qp_offset=-3/threads=12/lookahead_threads=2/sliced_threads=0/nr=0/decimate=0/interlaced=0/bluray_compat=0/constrained_intra=0/bframes=3/b_pyramid=2/b_adapt=2/b_bias=0/direct=1/weightb=1/open_gop=0/weightp=2/keyint=250/keyint_min=25/scenecut=40/intra_refresh=0/rc_lookahead=50/rc=abr/mbtree=1/bitrate=5200/ratetol=1.0/qcomp=0.60/qpmin=0/qpmax=69/qpstep=4/vbv_maxrate=14000/vbv_bufsize=14000/nal_hrd=none/filler=0/ip_ratio=1.40/aq=1: 1.00
    Default : Да
    Forced : Нет
    Аудио
    Идентификатор : 2
    Формат : PCM
    Идентификатор кодека : A_PCM/INT/LIT
    Продолжительность : 4 м. 13 с.
    Вид битрейта : Постоянный
    Каналы : 2 канала
    Частота : 48, 0 КГц
    Битовая глубина : 16 бит
    Default : Да
    Forced : Нет
    Общее
    Уникальный идентификатор : 243466791619981737746672336208674868603 (0xB729FF9A0EB8D6C4846E7D7298BACD7B)
    Полное имя : E: YelloYello - Video Collection from ALEXnROCK mkv8 Yello - Goldrush.mkv
    Формат : Matroska
    Версия формата : Version 2
    Размер файла : 187 Мбайт
    Продолжительность : 3 м. 50 с.
    Общий поток : 6825 Кбит/сек
    Дата кодирования : UTC 2018-05-07 16: 08: 26
    Программа кодирования : mkvmerge v7.8.0 (\'River Man\') 32bit built on Apr 3 2015 12: 11: 22
    Библиотека кодирования : libebml v1.3.1 + libmatroska v1.4.2
    Видео
    Идентификатор : 1
    Формат : AVC
    Формат/Информация : Advanced Video Codec
    Профиль формата : High@L4
    Настройки формата : CABAC/8 Ref Frames
    Параметр CABAC формата : Да
    Параметр RefFrames формата : 8 кадров
    Идентификатор кодека : V_MPEG4/ISO/AVC
    Продолжительность : 3 м. 50 с.
    Номинальный битрейт : 5200 Кбит/сек
    Ширина : 1280 пикселей
    Высота : 936 пикселей
    Соотношение сторон : 4: 3
    Режим частоты кадров : Постоянный
    Частота кадров : 25, 000 кадров/сек
    Цветовое пространство : YUV
    Субдискретизация насыщенности : 4: 2: 0
    Битовая глубина : 8 бит
    Тип развёртки : Прогрессивная
    Бит/(Пиксели*Кадры) : 0.174
    Библиотека кодирования : x264 core 146 r2538 121396c
    Настройки программы : cabac=1/ref=8/deblock=1: -1: -1/analyse=0x3: 0x113/me=umh/subme=7/psy=1/psy_rd=1.00: 0.20/mixed_ref=1/me_range=16/chroma_me=1/trellis=2/8x8dct=1/cqm=0/deadzone=21, 11/fast_pskip=0/chroma_qp_offset=-3/threads=12/lookahead_threads=2/sliced_threads=0/nr=0/decimate=0/interlaced=0/bluray_compat=0/constrained_intra=0/bframes=3/b_pyramid=2/b_adapt=2/b_bias=0/direct=1/weightb=1/open_gop=0/weightp=2/keyint=250/keyint_min=25/scenecut=40/intra_refresh=0/rc_lookahead=50/rc=abr/mbtree=1/bitrate=5200/ratetol=1.0/qcomp=0.60/qpmin=0/qpmax=69/qpstep=4/vbv_maxrate=14000/vbv_bufsize=14000/nal_hrd=none/filler=0/ip_ratio=1.40/aq=1: 1.00
    Default : Да
    Forced : Нет
    Аудио
    Идентификатор : 2
    Формат : PCM
    Идентификатор кодека : A_PCM/INT/LIT
    Продолжительность : 3 м. 50 с.
    Вид битрейта : Постоянный
    Каналы : 2 канала
    Частота : 48, 0 КГц
    Битовая глубина : 16 бит
    Default : Да
    Forced : Нет
    Общее
    Уникальный идентификатор : 188283980778479536390193155482164306791 (0x8DA62CF83F9931029DC6C822AD2AA367)
    Полное имя : E: YelloYello - Video Collection from ALEXnROCK mkv9 Yello - Oh Yeah.mkv
    Формат : Matroska
    Версия формата : Version 2
    Размер файла : 147 Мбайт
    Продолжительность : 3 м. 4 с.
    Общий поток : 6666 Кбит/сек
    Дата кодирования : UTC 2018-05-07 17: 05: 56
    Программа кодирования : mkvmerge v7.8.0 (\'River Man\') 32bit built on Apr 3 2015 12: 11: 22
    Библиотека кодирования : libebml v1.3.1 + libmatroska v1.4.2
    Видео
    Идентификатор : 1
    Формат : AVC
    Формат/Информация : Advanced Video Codec
    Профиль формата : High@L4
    Настройки формата : CABAC/8 Ref Frames
    Параметр CABAC формата : Да
    Параметр RefFrames формата : 8 кадров
    Идентификатор кодека : V_MPEG4/ISO/AVC
    Продолжительность : 3 м. 4 с.
    Номинальный битрейт : 5200 Кбит/сек
    Ширина : 1280 пикселей
    Высота : 936 пикселей
    Соотношение сторон : 4: 3
    Режим частоты кадров : Постоянный
    Частота кадров : 25, 000 кадров/сек
    Цветовое пространство : YUV
    Субдискретизация насыщенности : 4: 2: 0
    Битовая глубина : 8 бит
    Тип развёртки : Прогрессивная
    Бит/(Пиксели*Кадры) : 0.174
    Библиотека кодирования : x264 core 146 r2538 121396c
    Настройки программы : cabac=1/ref=8/deblock=1: -1: -1/analyse=0x3: 0x113/me=umh/subme=7/psy=1/psy_rd=1.00: 0.20/mixed_ref=1/me_range=16/chroma_me=1/trellis=2/8x8dct=1/cqm=0/deadzone=21, 11/fast_pskip=0/chroma_qp_offset=-3/threads=12/lookahead_threads=2/sliced_threads=0/nr=0/decimate=0/interlaced=0/bluray_compat=0/constrained_intra=0/bframes=3/b_pyramid=2/b_adapt=2/b_bias=0/direct=1/weightb=1/open_gop=0/weightp=2/keyint=250/keyint_min=25/scenecut=40/intra_refresh=0/rc_lookahead=50/rc=abr/mbtree=1/bitrate=5200/ratetol=1.0/qcomp=0.60/qpmin=0/qpmax=69/qpstep=4/vbv_maxrate=14000/vbv_bufsize=14000/nal_hrd=none/filler=0/ip_ratio=1.40/aq=1: 1.00
    Default : Да
    Forced : Нет
    Аудио
    Идентификатор : 2
    Формат : PCM
    Идентификатор кодека : A_PCM/INT/LIT
    Продолжительность : 3 м. 4 с.
    Вид битрейта : Постоянный
    Каналы : 2 канала
    Частота : 48, 0 КГц
    Битовая глубина : 16 бит
    Default : Да
    Forced : Нет
    Общее
    Уникальный идентификатор : 186769646931788640458728180415469778682 (0x8C82868BF155A229AEF9E10BA960F6FA)
    Полное имя : E: YelloYello - Video Collection from ALEXnROCK mkv10 Yello - Call It Love.mkv
    Формат : Matroska
    Версия формата : Version 4/Version 2
    Размер файла : 173 Мбайт
    Продолжительность : 3 м. 33 с.
    Общий поток : 6799 Кбит/сек
    Дата кодирования : UTC 2018-05-07 19: 30: 45
    Программа кодирования : mkvmerge v9.8.0 (\'Kuglblids\') 64bit
    Библиотека кодирования : libebml v1.3.4 + libmatroska v1.4.5
    Видео
    Идентификатор : 1
    Формат : AVC
    Формат/Информация : Advanced Video Codec
    Профиль формата : High@L4
    Настройки формата : CABAC/8 Ref Frames
    Параметр CABAC формата : Да
    Параметр RefFrames формата : 8 кадров
    Идентификатор кодека : V_MPEG4/ISO/AVC
    Продолжительность : 3 м. 32 с.
    Битрейт : 5200 Кбит/сек
    Ширина : 1280 пикселей
    Высота : 720 пикселей
    Соотношение сторон : 16: 9
    Режим частоты кадров : Постоянный
    Частота кадров : 25, 000 кадров/сек
    Цветовое пространство : YUV
    Субдискретизация насыщенности : 4: 2: 0
    Битовая глубина : 8 бит
    Тип развёртки : Прогрессивная
    Бит/(Пиксели*Кадры) : 0.226
    Размер потока : 134 Мбайт (77%)
    Библиотека кодирования : x264 core 146 r2538 121396c
    Настройки программы : cabac=1/ref=8/deblock=1: -1: -1/analyse=0x3: 0x113/me=umh/subme=7/psy=1/psy_rd=1.00: 0.20/mixed_ref=1/me_range=16/chroma_me=1/trellis=2/8x8dct=1/cqm=0/deadzone=21, 11/fast_pskip=0/chroma_qp_offset=-3/threads=12/lookahead_threads=2/sliced_threads=0/nr=0/decimate=0/interlaced=0/bluray_compat=0/constrained_intra=0/bframes=3/b_pyramid=2/b_adapt=2/b_bias=0/direct=1/weightb=1/open_gop=0/weightp=2/keyint=250/keyint_min=25/scenecut=40/intra_refresh=0/rc_lookahead=50/rc=abr/mbtree=1/bitrate=5200/ratetol=1.0/qcomp=0.60/qpmin=0/qpmax=69/qpstep=4/vbv_maxrate=14000/vbv_bufsize=14000/nal_hrd=none/filler=0/ip_ratio=1.40/aq=1: 1.00
    Default : Да
    Forced : Нет
    Аудио
    Идентификатор : 2
    Формат : PCM
    Идентификатор кодека : A_PCM/INT/LIT
    Продолжительность : 3 м. 33 с.
    Вид битрейта : Постоянный
    Битрейт : 1536 Кбит/сек
    Каналы : 2 канала
    Частота : 48, 0 КГц
    Частота кадров : 32, 000 кадра/сек (1500 SPF)
    Битовая глубина : 16 бит
    Размер потока : 39, 1 Мбайт (23%)
    Default : Да
    Forced : Нет
    Общее
    Уникальный идентификатор : 181376238777193910512184868471598324629 (0x8873CAFE848B785B9ECDFA5B69899B95)
    Полное имя : E: YelloYello - Video Collection from ALEXnROCK mkv11 Yello - Rhythm Divine.mkv
    Формат : Matroska
    Версия формата : Version 2
    Размер файла : 168 Мбайт
    Продолжительность : 3 м. 29 с.
    Общий поток : 6707 Кбит/сек
    Дата кодирования : UTC 2018-05-07 21: 00: 22
    Программа кодирования : mkvmerge v7.8.0 (\'River Man\') 32bit built on Apr 3 2015 12: 11: 22
    Библиотека кодирования : libebml v1.3.1 + libmatroska v1.4.2
    Видео
    Идентификатор : 1
    Формат : AVC
    Формат/Информация : Advanced Video Codec
    Профиль формата : High@L4
    Настройки формата : CABAC/8 Ref Frames
    Параметр CABAC формата : Да
    Параметр RefFrames формата : 8 кадров
    Идентификатор кодека : V_MPEG4/ISO/AVC
    Продолжительность : 3 м. 29 с.
    Номинальный битрейт : 5200 Кбит/сек
    Ширина : 1280 пикселей
    Высота : 944 пикселя
    Соотношение сторон : 4: 3
    Режим частоты кадров : Постоянный
    Частота кадров : 25, 000 кадров/сек
    Цветовое пространство : YUV
    Субдискретизация насыщенности : 4: 2: 0
    Битовая глубина : 8 бит
    Тип развёртки : Прогрессивная
    Бит/(Пиксели*Кадры) : 0.172
    Библиотека кодирования : x264 core 146 r2538 121396c
    Настройки программы : cabac=1/ref=8/deblock=1: -1: -1/analyse=0x3: 0x113/me=umh/subme=7/psy=1/psy_rd=1.00: 0.20/mixed_ref=1/me_range=16/chroma_me=1/trellis=2/8x8dct=1/cqm=0/deadzone=21, 11/fast_pskip=0/chroma_qp_offset=-3/threads=12/lookahead_threads=2/sliced_threads=0/nr=0/decimate=0/interlaced=0/bluray_compat=0/constrained_intra=0/bframes=3/b_pyramid=2/b_adapt=2/b_bias=0/direct=1/weightb=1/open_gop=0/weightp=2/keyint=250/keyint_min=25/scenecut=40/intra_refresh=0/rc_lookahead=50/rc=abr/mbtree=1/bitrate=5200/ratetol=1.0/qcomp=0.60/qpmin=0/qpmax=69/qpstep=4/vbv_maxrate=14000/vbv_bufsize=14000/nal_hrd=none/filler=0/ip_ratio=1.40/aq=1: 1.00
    Default : Да
    Forced : Нет
    Аудио
    Идентификатор : 2
    Формат : PCM
    Идентификатор кодека : A_PCM/INT/LIT
    Продолжительность : 3 м. 29 с.
    Вид битрейта : Постоянный
    Каналы : 2 канала
    Частота : 48, 0 КГц
    Битовая глубина : 16 бит
    Default : Да
    Forced : Нет
    Общее
    Уникальный идентификатор : 232550109979365487165118165405916775382 (0xAEF385A447F57F668212C677EF3CC3D6)
    Полное имя : E: YelloYello - Video Collection from ALEXnROCK mkv12 Yello - Race.mkv
    Формат : Matroska
    Версия формата : Version 2
    Размер файла : 175 Мбайт
    Продолжительность : 3 м. 40 с.
    Общий поток : 6639 Кбит/сек
    Дата кодирования : UTC 2018-05-07 22: 09: 19
    Программа кодирования : mkvmerge v7.8.0 (\'River Man\') 32bit built on Apr 3 2015 12: 11: 22
    Библиотека кодирования : libebml v1.3.1 + libmatroska v1.4.2
    Видео
    Идентификатор : 1
    Формат : AVC
    Формат/Информация : Advanced Video Codec
    Профиль формата : High@L4
    Настройки формата : CABAC/8 Ref Frames
    Параметр CABAC формата : Да
    Параметр RefFrames формата : 8 кадров
    Идентификатор кодека : V_MPEG4/ISO/AVC
    Продолжительность : 3 м. 40 с.
    Номинальный битрейт : 5200 Кбит/сек
    Ширина : 1280 пикселей
    Высота : 936 пикселей
    Соотношение сторон : 4: 3
    Режим частоты кадров : Постоянный
    Частота кадров : 25, 000 кадров/сек
    Цветовое пространство : YUV
    Субдискретизация насыщенности : 4: 2: 0
    Битовая глубина : 8 бит
    Тип развёртки : Прогрессивная
    Бит/(Пиксели*Кадры) : 0.174
    Библиотека кодирования : x264 core 146 r2538 121396c
    Настройки программы : cabac=1/ref=8/deblock=1: -1: -1/analyse=0x3: 0x113/me=umh/subme=7/psy=1/psy_rd=1.00: 0.20/mixed_ref=1/me_range=16/chroma_me=1/trellis=2/8x8dct=1/cqm=0/deadzone=21, 11/fast_pskip=0/chroma_qp_offset=-3/threads=12/lookahead_threads=2/sliced_threads=0/nr=0/decimate=0/interlaced=0/bluray_compat=0/constrained_intra=0/bframes=3/b_pyramid=2/b_adapt=2/b_bias=0/direct=1/weightb=1/open_gop=0/weightp=2/keyint=250/keyint_min=25/scenecut=40/intra_refresh=0/rc_lookahead=50/rc=abr/mbtree=1/bitrate=5200/ratetol=1.0/qcomp=0.60/qpmin=0/qpmax=69/qpstep=4/vbv_maxrate=14000/vbv_bufsize=14000/nal_hrd=none/filler=0/ip_ratio=1.40/aq=1: 1.00
    Default : Да
    Forced : Нет
    Аудио
    Идентификатор : 2
    Формат : PCM
    Идентификатор кодека : A_PCM/INT/LIT
    Продолжительность : 3 м. 40 с.
    Вид битрейта : Постоянный
    Каналы : 2 канала
    Частота : 48, 0 КГц
    Битовая глубина : 16 бит
    Default : Да
    Forced : Нет
    Общее
    Уникальный идентификатор : 242605937394365408015817927603954288051 (0xB68434362898A938B21C6365F88A85B3)
    Полное имя : E: YelloYello - Video Collection from ALEXnROCK mkv13 Yello - Tied Up.mkv
    Формат : Matroska
    Версия формата : Version 2
    Размер файла : 164 Мбайт
    Продолжительность : 3 м. 24 с.
    Общий поток : 6743 Кбит/сек
    Дата кодирования : UTC 2018-05-08 12: 09: 37
    Программа кодирования : mkvmerge v7.8.0 (\'River Man\') 32bit built on Apr 3 2015 12: 11: 22
    Библиотека кодирования : libebml v1.3.1 + libmatroska v1.4.2
    Видео
    Идентификатор : 1
    Формат : AVC
    Формат/Информация : Advanced Video Codec
    Профиль формата : High@L4
    Настройки формата : CABAC/8 Ref Frames
    Параметр CABAC формата : Да
    Параметр RefFrames формата : 8 кадров
    Идентификатор кодека : V_MPEG4/ISO/AVC
    Продолжительность : 3 м. 24 с.
    Номинальный битрейт : 5200 Кбит/сек
    Ширина : 1280 пикселей
    Высота : 944 пикселя
    Соотношение сторон : 4: 3
    Режим частоты кадров : Постоянный
    Частота кадров : 25, 000 кадров/сек
    Цветовое пространство : YUV
    Субдискретизация насыщенности : 4: 2: 0
    Битовая глубина : 8 бит
    Тип развёртки : Прогрессивная
    Бит/(Пиксели*Кадры) : 0.172
    Библиотека кодирования : x264 core 146 r2538 121396c
    Настройки программы : cabac=1/ref=8/deblock=1: -1: -1/analyse=0x3: 0x113/me=umh/subme=7/psy=1/psy_rd=1.00: 0.20/mixed_ref=1/me_range=16/chroma_me=1/trellis=2/8x8dct=1/cqm=0/deadzone=21, 11/fast_pskip=0/chroma_qp_offset=-3/threads=12/lookahead_threads=2/sliced_threads=0/nr=0/decimate=0/interlaced=0/bluray_compat=0/constrained_intra=0/bframes=3/b_pyramid=2/b_adapt=2/b_bias=0/direct=3/weightb=1/open_gop=0/weightp=2/keyint=250/keyint_min=25/scenecut=40/intra_refresh=0/rc_lookahead=50/rc=2pass/mbtree=1/bitrate=5200/ratetol=1.0/qcomp=0.60/qpmin=0/qpmax=69/qpstep=4/cplxblur=20.0/qblur=0.5/vbv_maxrate=14000/vbv_bufsize=14000/nal_hrd=none/filler=0/ip_ratio=1.40/aq=1: 1.00
    Default : Да
    Forced : Нет
    Аудио
    Идентификатор : 2
    Формат : PCM
    Идентификатор кодека : A_PCM/INT/LIT
    Продолжительность : 3 м. 24 с.
    Вид битрейта : Постоянный
    Каналы : 2 канала
    Частота : 48, 0 КГц
    Битовая глубина : 16 бит
    Default : Да
    Forced : Нет
    Общее
    Уникальный идентификатор : 201303632805689740420132182183436743086 (0x9771AB5FFD703251879A737CD8F1F1AE)
    Полное имя : E: YelloYello - Video Collection from ALEXnROCK mkv14 Yello - Of Course I\'m Lying.mkv
    Формат : Matroska
    Версия формата : Version 2
    Размер файла : 201 Мбайт
    Продолжительность : 4 м. 10 с.
    Общий поток : 6738 Кбит/сек
    Дата кодирования : UTC 2018-05-09 23: 33: 52
    Программа кодирования : mkvmerge v7.8.0 (\'River Man\') 32bit built on Apr 3 2015 12: 11: 22
    Библиотека кодирования : libebml v1.3.1 + libmatroska v1.4.2
    Видео
    Идентификатор : 1
    Формат : AVC
    Формат/Информация : Advanced Video Codec
    Профиль формата : High@L4
    Настройки формата : CABAC/8 Ref Frames
    Параметр CABAC формата : Да
    Параметр RefFrames формата : 8 кадров
    Идентификатор кодека : V_MPEG4/ISO/AVC
    Продолжительность : 4 м. 10 с.
    Номинальный битрейт : 5200 Кбит/сек
    Ширина : 1280 пикселей
    Высота : 944 пикселя
    Соотношение сторон : 4: 3
    Режим частоты кадров : Постоянный
    Частота кадров : 25, 000 кадров/сек
    Цветовое пространство : YUV
    Субдискретизация насыщенности : 4: 2: 0
    Битовая глубина : 8 бит
    Тип развёртки : Прогрессивная
    Бит/(Пиксели*Кадры) : 0.172
    Библиотека кодирования : x264 core 146 r2538 121396c
    Настройки программы : cabac=1/ref=8/deblock=1: -1: -1/analyse=0x3: 0x113/me=umh/subme=7/psy=1/psy_rd=1.00: 0.20/mixed_ref=1/me_range=16/chroma_me=1/trellis=2/8x8dct=1/cqm=0/deadzone=21, 11/fast_pskip=0/chroma_qp_offset=-3/threads=12/lookahead_threads=2/sliced_threads=0/nr=0/decimate=0/interlaced=0/bluray_compat=0/constrained_intra=0/bframes=3/b_pyramid=2/b_adapt=2/b_bias=0/direct=3/weightb=1/open_gop=0/weightp=2/keyint=250/keyint_min=25/scenecut=40/intra_refresh=0/rc_lookahead=50/rc=2pass/mbtree=1/bitrate=5200/ratetol=1.0/qcomp=0.60/qpmin=0/qpmax=69/qpstep=4/cplxblur=20.0/qblur=0.5/vbv_maxrate=14000/vbv_bufsize=14000/nal_hrd=none/filler=0/ip_ratio=1.40/aq=1: 1.00
    Default : Да
    Forced : Нет
    Аудио
    Идентификатор : 2
    Формат : PCM
    Идентификатор кодека : A_PCM/INT/LIT
    Продолжительность : 4 м. 10 с.
    Вид битрейта : Постоянный
    Каналы : 2 канала
    Частота : 48, 0 КГц
    Битовая глубина : 16 бит
    Default : Да
    Forced : Нет
    Общее
    Уникальный идентификатор : 214376147196469974311291722454257792715 (0xA1475818902E0F5085366CA87F4676CB)
    Полное имя : E: YelloYello - Video Collection from ALEXnROCK mkv15 Yello - Rubberbandman.mkv
    Формат : Matroska
    Версия формата : Version 2
    Размер файла : 168 Мбайт
    Продолжительность : 3 м. 29 с.
    Общий поток : 6744 Кбит/сек
    Дата кодирования : UTC 2018-05-09 13: 16: 20
    Программа кодирования : mkvmerge v7.8.0 (\'River Man\') 32bit built on Apr 3 2015 12: 11: 22
    Библиотека кодирования : libebml v1.3.1 + libmatroska v1.4.2
    Видео
    Идентификатор : 1
    Формат : AVC
    Формат/Информация : Advanced Video Codec
    Профиль формата : High@L4
    Настройки формата : CABAC/8 Ref Frames
    Параметр CABAC формата : Да
    Параметр RefFrames формата : 8 кадров
    Идентификатор кодека : V_MPEG4/ISO/AVC
    Продолжительность : 3 м. 29 с.
    Номинальный битрейт : 5200 Кбит/сек
    Ширина : 1280 пикселей
    Высота : 936 пикселей
    Соотношение сторон : 4: 3
    Режим частоты кадров : Постоянный
    Частота кадров : 25, 000 кадров/сек
    Цветовое пространство : YUV
    Субдискретизация насыщенности : 4: 2: 0
    Битовая глубина : 8 бит
    Тип развёртки : Прогрессивная
    Бит/(Пиксели*Кадры) : 0.174
    Библиотека кодирования : x264 core 146 r2538 121396c
    Настройки программы : cabac=1/ref=8/deblock=1: -1: -1/analyse=0x3: 0x113/me=umh/subme=7/psy=1/psy_rd=1.00: 0.20/mixed_ref=1/me_range=16/chroma_me=1/trellis=2/8x8dct=1/cqm=0/deadzone=21, 11/fast_pskip=0/chroma_qp_offset=-3/threads=12/lookahead_threads=2/sliced_threads=0/nr=0/decimate=0/interlaced=0/bluray_compat=0/constrained_intra=0/bframes=3/b_pyramid=2/b_adapt=2/b_bias=0/direct=3/weightb=1/open_gop=0/weightp=2/keyint=250/keyint_min=25/scenecut=40/intra_refresh=0/rc_lookahead=50/rc=2pass/mbtree=1/bitrate=5200/ratetol=1.0/qcomp=0.60/qpmin=0/qpmax=69/qpstep=4/cplxblur=20.0/qblur=0.5/vbv_maxrate=14000/vbv_bufsize=14000/nal_hrd=none/filler=0/ip_ratio=1.40/aq=1: 1.00
    Default : Да
    Forced : Нет
    Аудио
    Идентификатор : 2
    Формат : PCM
    Идентификатор кодека : A_PCM/INT/LIT
    Продолжительность : 3 м. 29 с.
    Вид битрейта : Постоянный
    Каналы : 2 канала
    Частота : 48, 0 КГц
    Битовая глубина : 16 бит
    Default : Да
    Forced : Нет
    Общее
    Уникальный идентификатор : 195396741319372921152105326102160706567 (0x93000B23C04062CA9CEE11F7C5DD8C07)
    Полное имя : E: YelloYello - Video Collection from ALEXnROCK mkv16 Yello - Whos\' Gone.mkv
    Формат : Matroska
    Версия формата : Version 4/Version 2
    Размер файла : 160 Мбайт
    Продолжительность : 3 м. 19 с.
    Общий поток : 6747 Кбит/сек
    Дата кодирования : UTC 2018-05-08 12: 20: 29
    Программа кодирования : mkvmerge v9.8.0 (\'Kuglblids\') 64bit
    Библиотека кодирования : libebml v1.3.4 + libmatroska v1.4.5
    Видео
    Идентификатор : 1
    Формат : AVC
    Формат/Информация : Advanced Video Codec
    Профиль формата : High@L4
    Настройки формата : CABAC/8 Ref Frames
    Параметр CABAC формата : Да
    Параметр RefFrames формата : 8 кадров
    Идентификатор кодека : V_MPEG4/ISO/AVC
    Продолжительность : 3 м. 19 с.
    Битрейт : 5200 Кбит/сек
    Ширина : 1280 пикселей
    Высота : 944 пикселя
    Соотношение сторон : 4: 3
    Режим частоты кадров : Постоянный
    Частота кадров : 25, 000 кадров/сек
    Цветовое пространство : YUV
    Субдискретизация насыщенности : 4: 2: 0
    Битовая глубина : 8 бит
    Тип развёртки : Прогрессивная
    Бит/(Пиксели*Кадры) : 0.172
    Размер потока : 124 Мбайт (77%)
    Библиотека кодирования : x264 core 146 r2538 121396c
    Настройки программы : cabac=1/ref=8/deblock=1: -1: -1/analyse=0x3: 0x113/me=umh/subme=7/psy=1/psy_rd=1.00: 0.20/mixed_ref=1/me_range=16/chroma_me=1/trellis=2/8x8dct=1/cqm=0/deadzone=21, 11/fast_pskip=0/chroma_qp_offset=-3/threads=12/lookahead_threads=2/sliced_threads=0/nr=0/decimate=0/interlaced=0/bluray_compat=0/constrained_intra=0/bframes=3/b_pyramid=2/b_adapt=2/b_bias=0/direct=3/weightb=1/open_gop=0/weightp=2/keyint=250/keyint_min=25/scenecut=40/intra_refresh=0/rc_lookahead=50/rc=2pass/mbtree=1/bitrate=5200/ratetol=1.0/qcomp=0.60/qpmin=0/qpmax=69/qpstep=4/cplxblur=20.0/qblur=0.5/vbv_maxrate=14000/vbv_bufsize=14000/nal_hrd=none/filler=0/ip_ratio=1.40/aq=1: 1.00
    Default : Да
    Forced : Нет
    Аудио
    Идентификатор : 2
    Формат : PCM
    Идентификатор кодека : A_PCM/INT/LIT
    Продолжительность : 3 м. 19 с.
    Вид битрейта : Постоянный
    Битрейт : 1536 Кбит/сек
    Каналы : 2 канала
    Частота : 48, 0 КГц
    Частота кадров : 32, 003 кадра/сек (1500 SPF)
    Битовая глубина : 16 бит
    Размер потока : 36, 5 Мбайт (23%)
    Default : Да
    Forced : Нет
    Общее
    Уникальный идентификатор : 240125712719026643500317216776728834516 (0xB4A687B1A350CEBEA8F88B715AE771D4)
    Полное имя : E: YelloYello - Video Collection from ALEXnROCK mkv17 Yello - Do It.mkv
    Формат : Matroska
    Версия формата : Version 4/Version 2
    Размер файла : 375 Мбайт
    Продолжительность : 7 м. 46 с.
    Общий поток : 6741 Кбит/сек
    Дата кодирования : UTC 2018-05-08 15: 31: 44
    Программа кодирования : mkvmerge v9.8.0 (\'Kuglblids\') 64bit
    Библиотека кодирования : libebml v1.3.4 + libmatroska v1.4.5
    Видео
    Идентификатор : 1
    Формат : AVC
    Формат/Информация : Advanced Video Codec
    Профиль формата : High@L4
    Настройки формата : CABAC/8 Ref Frames
    Параметр CABAC формата : Да
    Параметр RefFrames формата : 8 кадров
    Идентификатор кодека : V_MPEG4/ISO/AVC
    Продолжительность : 7 м. 46 с.
    Битрейт : 5200 Кбит/сек
    Ширина : 1280 пикселей
    Высота : 944 пикселя
    Соотношение сторон : 4: 3
    Режим частоты кадров : Постоянный
    Частота кадров : 25, 000 кадров/сек
    Цветовое пространство : YUV
    Субдискретизация насыщенности : 4: 2: 0
    Битовая глубина : 8 бит
    Тип развёртки : Прогрессивная
    Бит/(Пиксели*Кадры) : 0.172
    Размер потока : 289 Мбайт (77%)
    Библиотека кодирования : x264 core 146 r2538 121396c
    Настройки программы : cabac=1/ref=8/deblock=1: -1: -1/analyse=0x3: 0x113/me=umh/subme=7/psy=1/psy_rd=1.00: 0.20/mixed_ref=1/me_range=16/chroma_me=1/trellis=2/8x8dct=1/cqm=0/deadzone=21, 11/fast_pskip=0/chroma_qp_offset=-3/threads=12/lookahead_threads=2/sliced_threads=0/nr=0/decimate=0/interlaced=0/bluray_compat=0/constrained_intra=0/bframes=3/b_pyramid=2/b_adapt=2/b_bias=0/direct=3/weightb=1/open_gop=0/weightp=2/keyint=250/keyint_min=25/scenecut=40/intra_refresh=0/rc_lookahead=50/rc=2pass/mbtree=1/bitrate=5200/ratetol=1.0/qcomp=0.60/qpmin=0/qpmax=69/qpstep=4/cplxblur=20.0/qblur=0.5/vbv_maxrate=14000/vbv_bufsize=14000/nal_hrd=none/filler=0/ip_ratio=1.40/aq=1: 1.00
    Default : Да
    Forced : Нет
    Аудио
    Идентификатор : 2
    Формат : PCM
    Идентификатор кодека : A_PCM/INT/LIT
    Продолжительность : 7 м. 46 с.
    Вид битрейта : Постоянный
    Битрейт : 1536 Кбит/сек
    Каналы : 2 канала
    Частота : 48, 0 КГц
    Частота кадров : 32, 002 кадра/сек (1500 SPF)
    Битовая глубина : 16 бит
    Размер потока : 85, 4 Мбайт (23%)
    Default : Да
    Forced : Нет
    Общее
    Уникальный идентификатор : 201659512425291909236978063131358101888 (0x97B635984AB9DB668D0A267B61D18180)
    Полное имя : E: YelloYello - Video Collection from ALEXnROCK mkv18 Yello - Drive Driven.mkv
    Формат : Matroska
    Версия формата : Version 4/Version 2
    Размер файла : 169 Мбайт
    Продолжительность : 3 м. 29 с.
    Общий поток : 6743 Кбит/сек
    Дата кодирования : UTC 2018-05-13 12: 17: 25
    Программа кодирования : mkvmerge v9.8.0 (\'Kuglblids\') 64bit
    Библиотека кодирования : libebml v1.3.4 + libmatroska v1.4.5
    Видео
    Идентификатор : 1
    Формат : AVC
    Формат/Информация : Advanced Video Codec
    Профиль формата : High@L4
    Настройки формата : CABAC/8 Ref Frames
    Параметр CABAC формата : Да
    Параметр RefFrames формата : 8 кадров
    Идентификатор кодека : V_MPEG4/ISO/AVC
    Продолжительность : 3 м. 29 с.
    Битрейт : 5200 Кбит/сек
    Ширина : 1280 пикселей
    Высота : 720 пикселей
    Соотношение сторон : 16: 9
    Режим частоты кадров : Постоянный
    Частота кадров : 29, 970 (30000/1001) кадров/сек
    Цветовое пространство : YUV
    Субдискретизация насыщенности : 4: 2: 0
    Битовая глубина : 8 бит
    Тип развёртки : Прогрессивная
    Бит/(Пиксели*Кадры) : 0.188
    Размер потока : 130 Мбайт (77%)
    Библиотека кодирования : x264 core 146 r2538 121396c
    Настройки программы : cabac=1/ref=8/deblock=1: -1: -1/analyse=0x3: 0x113/me=umh/subme=7/psy=1/psy_rd=1.00: 0.20/mixed_ref=1/me_range=16/chroma_me=1/trellis=2/8x8dct=1/cqm=0/deadzone=21, 11/fast_pskip=0/chroma_qp_offset=-3/threads=12/lookahead_threads=2/sliced_threads=0/nr=0/decimate=0/interlaced=0/bluray_compat=0/constrained_intra=0/bframes=3/b_pyramid=2/b_adapt=2/b_bias=0/direct=3/weightb=1/open_gop=0/weightp=2/keyint=250/keyint_min=25/scenecut=40/intra_refresh=0/rc_lookahead=50/rc=2pass/mbtree=1/bitrate=5200/ratetol=1.0/qcomp=0.60/qpmin=0/qpmax=69/qpstep=4/cplxblur=20.0/qblur=0.5/vbv_maxrate=14000/vbv_bufsize=14000/nal_hrd=none/filler=0/ip_ratio=1.40/aq=1: 1.00
    Default : Да
    Forced : Нет
    Аудио
    Идентификатор : 2
    Формат : PCM
    Идентификатор кодека : A_PCM/INT/LIT
    Продолжительность : 3 м. 29 с.
    Вид битрейта : Постоянный
    Битрейт : 1536 Кбит/сек
    Каналы : 2 канала
    Частота : 48, 0 КГц
    Частота кадров : 32, 005 кадра/сек (1500 SPF)
    Битовая глубина : 16 бит
    Размер потока : 38, 4 Мбайт (23%)
    Default : Да
    Forced : Нет
    Общее
    Уникальный идентификатор : 198150482785971725279551062525714789471 (0x95126513874241EB9962D8FB0A5E745F)
    Полное имя : E: YelloYello - Video Collection from ALEXnROCK mkv19 Yello - Jungle Bill.mkv
    Формат : Matroska
    Версия формата : Version 2
    Размер файла : 197 Мбайт
    Продолжительность : 4 м. 5 с.
    Общий поток : 6741 Кбит/сек
    Дата кодирования : UTC 2018-05-08 21: 24: 41
    Программа кодирования : mkvmerge v7.8.0 (\'River Man\') 32bit built on Apr 3 2015 12: 11: 22
    Библиотека кодирования : libebml v1.3.1 + libmatroska v1.4.2
    Видео
    Идентификатор : 1
    Формат : AVC
    Формат/Информация : Advanced Video Codec
    Профиль формата : High@L4
    Настройки формата : CABAC/8 Ref Frames
    Параметр CABAC формата : Да
    Параметр RefFrames формата : 8 кадров
    Идентификатор кодека : V_MPEG4/ISO/AVC
    Продолжительность : 4 м. 5 с.
    Номинальный битрейт : 5200 Кбит/сек
    Ширина : 1280 пикселей
    Высота : 944 пикселя
    Соотношение сторон : 4: 3
    Режим частоты кадров : Постоянный
    Частота кадров : 25, 000 кадров/сек
    Цветовое пространство : YUV
    Субдискретизация насыщенности : 4: 2: 0
    Битовая глубина : 8 бит
    Тип развёртки : Прогрессивная
    Бит/(Пиксели*Кадры) : 0.172
    Библиотека кодирования : x264 core 146 r2538 121396c
    Настройки программы : cabac=1/ref=8/deblock=1: -1: -1/analyse=0x3: 0x113/me=umh/subme=7/psy=1/psy_rd=1.00: 0.20/mixed_ref=1/me_range=16/chroma_me=1/trellis=2/8x8dct=1/cqm=0/deadzone=21, 11/fast_pskip=0/chroma_qp_offset=-3/threads=12/lookahead_threads=2/sliced_threads=0/nr=0/decimate=0/interlaced=0/bluray_compat=0/constrained_intra=0/bframes=3/b_pyramid=2/b_adapt=2/b_bias=0/direct=3/weightb=1/open_gop=0/weightp=2/keyint=250/keyint_min=25/scenecut=40/intra_refresh=0/rc_lookahead=50/rc=2pass/mbtree=1/bitrate=5200/ratetol=1.0/qcomp=0.60/qpmin=0/qpmax=69/qpstep=4/cplxblur=20.0/qblur=0.5/vbv_maxrate=14000/vbv_bufsize=14000/nal_hrd=none/filler=0/ip_ratio=1.40/aq=1: 1.00
    Default : Да
    Forced : Нет
    Аудио
    Идентификатор : 2
    Формат : PCM
    Идентификатор кодека : A_PCM/INT/LIT
    Продолжительность : 4 м. 5 с.
    Вид битрейта : Постоянный
    Каналы : 2 канала
    Частота : 48, 0 КГц
    Битовая глубина : 16 бит
    Default : Да
    Forced : Нет
    Общее
    Уникальный идентификатор : 172554268962096912901901558439507918773 (0x81D0BE4D02D337228996C3703013FFB5)
    Полное имя : E: YelloYello - Video Collection from ALEXnROCK mkv20 Yello - Santa Clause.mkv
    Формат : Matroska
    Версия формата : Version 4/Version 2
    Размер файла : 128 Мбайт
    Продолжительность : 2 м. 38 с.
    Общий поток : 6740 Кбит/сек
    Дата кодирования : UTC 2018-05-10 15: 15: 46
    Программа кодирования : mkvmerge v9.8.0 (\'Kuglblids\') 64bit
    Библиотека кодирования : libebml v1.3.4 + libmatroska v1.4.5
    Видео
    Идентификатор : 1
    Формат : AVC
    Формат/Информация : Advanced Video Codec
    Профиль формата : High@L4
    Настройки формата : CABAC/8 Ref Frames
    Параметр CABAC формата : Да
    Параметр RefFrames формата : 8 кадров
    Идентификатор кодека : V_MPEG4/ISO/AVC
    Продолжительность : 2 м. 38 с.
    Битрейт : 5200 Кбит/сек
    Ширина : 1280 пикселей
    Высота : 936 пикселей
    Соотношение сторон : 4: 3
    Режим частоты кадров : Постоянный
    Частота кадров : 25, 000 кадров/сек
    Цветовое пространство : YUV
    Субдискретизация насыщенности : 4: 2: 0
    Битовая глубина : 8 бит
    Тип развёртки : Прогрессивная
    Бит/(Пиксели*Кадры) : 0.174
    Размер потока : 98, 6 Мбайт (77%)
    Библиотека кодирования : x264 core 146 r2538 121396c
    Настройки программы : cabac=1/ref=8/deblock=1: -1: -1/analyse=0x3: 0x113/me=umh/subme=7/psy=1/psy_rd=1.00: 0.20/mixed_ref=1/me_range=16/chroma_me=1/trellis=2/8x8dct=1/cqm=0/deadzone=21, 11/fast_pskip=0/chroma_qp_offset=-3/threads=12/lookahead_threads=2/sliced_threads=0/nr=0/decimate=0/interlaced=0/bluray_compat=0/constrained_intra=0/bframes=3/b_pyramid=2/b_adapt=2/b_bias=0/direct=3/weightb=1/open_gop=0/weightp=2/keyint=250/keyint_min=25/scenecut=40/intra_refresh=0/rc_lookahead=50/rc=2pass/mbtree=1/bitrate=5200/ratetol=1.0/qcomp=0.60/qpmin=0/qpmax=69/qpstep=4/cplxblur=20.0/qblur=0.5/vbv_maxrate=14000/vbv_bufsize=14000/nal_hrd=none/filler=0/ip_ratio=1.40/aq=1: 1.00
    Default : Да
    Forced : Нет
    Аудио
    Идентификатор : 2
    Формат : PCM
    Идентификатор кодека : A_PCM/INT/LIT
    Продолжительность : 2 м. 38 с.
    Вид битрейта : Постоянный
    Битрейт : 1536 Кбит/сек
    Каналы : 2 канала
    Частота : 48, 0 КГц
    Частота кадров : 32, 002 кадра/сек (1500 SPF)
    Битовая глубина : 16 бит
    Размер потока : 29, 1 Мбайт (23%)
    Default : Да
    Forced : Нет
    Общее
    Уникальный идентификатор : 194376315487857304453563120561450558928 (0x923B844307465D8F800F3D7469EEA5D0)
    Полное имя : E: YelloYello - Video Collection from ALEXnROCK mkv21 Yello - Westbam\'s - Bostich.mkv
    Формат : Matroska
    Версия формата : Version 4/Version 2
    Размер файла : 144 Мбайт
    Продолжительность : 2 м. 59 с.
    Общий поток : 6742 Кбит/сек
    Дата кодирования : UTC 2018-05-10 16: 35: 17
    Программа кодирования : mkvmerge v9.8.0 (\'Kuglblids\') 64bit
    Библиотека кодирования : libebml v1.3.4 + libmatroska v1.4.5
    Видео
    Идентификатор : 1
    Формат : AVC
    Формат/Информация : Advanced Video Codec
    Профиль формата : High@L4
    Настройки формата : CABAC/8 Ref Frames
    Параметр CABAC формата : Да
    Параметр RefFrames формата : 8 кадров
    Идентификатор кодека : V_MPEG4/ISO/AVC
    Продолжительность : 2 м. 59 с.
    Битрейт : 5200 Кбит/сек
    Ширина : 1280 пикселей
    Высота : 680 пикселей
    Соотношение сторон : 1, 882
    Режим частоты кадров : Постоянный
    Частота кадров : 25, 000 кадров/сек
    Цветовое пространство : YUV
    Субдискретизация насыщенности : 4: 2: 0
    Битовая глубина : 8 бит
    Тип развёртки : Прогрессивная
    Бит/(Пиксели*Кадры) : 0.239
    Размер потока : 111 Мбайт (77%)
    Библиотека кодирования : x264 core 146 r2538 121396c
    Настройки программы : cabac=1/ref=8/deblock=1: -1: -1/analyse=0x3: 0x113/me=umh/subme=7/psy=1/psy_rd=1.00: 0.20/mixed_ref=1/me_range=16/chroma_me=1/trellis=2/8x8dct=1/cqm=0/deadzone=21, 11/fast_pskip=0/chroma_qp_offset=-3/threads=12/lookahead_threads=2/sliced_threads=0/nr=0/decimate=0/interlaced=0/bluray_compat=0/constrained_intra=0/bframes=3/b_pyramid=2/b_adapt=2/b_bias=0/direct=3/weightb=1/open_gop=0/weightp=2/keyint=250/keyint_min=25/scenecut=40/intra_refresh=0/rc_lookahead=50/rc=2pass/mbtree=1/bitrate=5200/ratetol=1.0/qcomp=0.60/qpmin=0/qpmax=69/qpstep=4/cplxblur=20.0/qblur=0.5/vbv_maxrate=14000/vbv_bufsize=14000/nal_hrd=none/filler=0/ip_ratio=1.40/aq=1: 1.00
    Default : Да
    Forced : Нет
    Аудио
    Идентификатор : 2
    Формат : PCM
    Идентификатор кодека : A_PCM/INT/LIT
    Продолжительность : 2 м. 59 с.
    Вид битрейта : Постоянный
    Битрейт : 1536 Кбит/сек
    Каналы : 2 канала
    Частота : 48, 0 КГц
    Частота кадров : 32, 003 кадра/сек (1500 SPF)
    Битовая глубина : 16 бит
    Размер потока : 32, 9 Мбайт (23%)
    Default : Да
    Forced : Нет
    Общее
    Уникальный идентификатор : 243284725957518246359971721148162339551 (0xB706EF12531F6A5496BA418259EF72DF)
    Полное имя : E: YelloYello - Video Collection from ALEXnROCK mkv22 Yello - To The Sea.mkv
    Формат : Matroska
    Версия формата : Version 2
    Размер файла : 187 Мбайт
    Продолжительность : 3 м. 52 с.
    Общий поток : 6741 Кбит/сек
    Дата кодирования : UTC 2018-05-08 16: 06: 40
    Программа кодирования : mkvmerge v7.8.0 (\'River Man\') 32bit built on Apr 3 2015 12: 11: 22
    Библиотека кодирования : libebml v1.3.1 + libmatroska v1.4.2
    Видео
    Идентификатор : 1
    Формат : AVC
    Формат/Информация : Advanced Video Codec
    Профиль формата : High@L4
    Настройки формата : CABAC/8 Ref Frames
    Параметр CABAC формата : Да
    Параметр RefFrames формата : 8 кадров
    Идентификатор кодека : V_MPEG4/ISO/AVC
    Продолжительность : 3 м. 52 с.
    Номинальный битрейт : 5200 Кбит/сек
    Ширина : 1280 пикселей
    Высота : 944 пикселя
    Соотношение сторон : 4: 3
    Режим частоты кадров : Постоянный
    Частота кадров : 25, 000 кадров/сек
    Цветовое пространство : YUV
    Субдискретизация насыщенности : 4: 2: 0
    Битовая глубина : 8 бит
    Тип развёртки : Прогрессивная
    Бит/(Пиксели*Кадры) : 0.172
    Библиотека кодирования : x264 core 146 r2538 121396c
    Настройки программы : cabac=1/ref=8/deblock=1: -1: -1/analyse=0x3: 0x113/me=umh/subme=7/psy=1/psy_rd=1.00: 0.20/mixed_ref=1/me_range=16/chroma_me=1/trellis=2/8x8dct=1/cqm=0/deadzone=21, 11/fast_pskip=0/chroma_qp_offset=-3/threads=12/lookahead_threads=2/sliced_threads=0/nr=0/decimate=0/interlaced=0/bluray_compat=0/constrained_intra=0/bframes=3/b_pyramid=2/b_adapt=2/b_bias=0/direct=3/weightb=1/open_gop=0/weightp=2/keyint=250/keyint_min=25/scenecut=40/intra_refresh=0/rc_lookahead=50/rc=2pass/mbtree=1/bitrate=5200/ratetol=1.0/qcomp=0.60/qpmin=0/qpmax=69/qpstep=4/cplxblur=20.0/qblur=0.5/vbv_maxrate=14000/vbv_bufsize=14000/nal_hrd=none/filler=0/ip_ratio=1.40/aq=1: 1.00
    Default : Да
    Forced : Нет
    Аудио
    Идентификатор : 2
    Формат : PCM
    Идентификатор кодека : A_PCM/INT/LIT
    Продолжительность : 3 м. 52 с.
    Вид битрейта : Постоянный
    Каналы : 2 канала
    Частота : 48, 0 КГц
    Битовая глубина : 16 бит
    Default : Да
    Forced : Нет
    Общее
    Уникальный идентификатор : 209898926679697477729136631386288234326 (0x9DE91014E32F33F6A99957CB49C51F56)
    Полное имя : E: YelloYello - Video Collection from ALEXnROCK mkv23 Yello - On Track.mkv
    Формат : Matroska
    Версия формата : Version 4/Version 2
    Размер файла : 153 Мбайт
    Продолжительность : 3 м. 10 с.
    Общий поток : 6741 Кбит/сек
    Дата кодирования : UTC 2018-05-08 18: 01: 47
    Программа кодирования : mkvmerge v9.8.0 (\'Kuglblids\') 64bit
    Библиотека кодирования : libebml v1.3.4 + libmatroska v1.4.5
    Видео
    Идентификатор : 1
    Формат : AVC
    Формат/Информация : Advanced Video Codec
    Профиль формата : High@L4
    Настройки формата : CABAC/8 Ref Frames
    Параметр CABAC формата : Да
    Параметр RefFrames формата : 8 кадров
    Идентификатор кодека : V_MPEG4/ISO/AVC
    Продолжительность : 3 м. 10 с.
    Битрейт : 5200 Кбит/сек
    Ширина : 1280 пикселей
    Высота : 936 пикселей
    Соотношение сторон : 4: 3
    Режим частоты кадров : Постоянный
    Частота кадров : 25, 000 кадров/сек
    Цветовое пространство : YUV
    Субдискретизация насыщенности : 4: 2: 0
    Битовая глубина : 8 бит
    Тип развёртки : Прогрессивная
    Бит/(Пиксели*Кадры) : 0.174
    Размер потока : 118 Мбайт (77%)
    Библиотека кодирования : x264 core 146 r2538 121396c
    Настройки программы : cabac=1/ref=8/deblock=1: -1: -1/analyse=0x3: 0x113/me=umh/subme=7/psy=1/psy_rd=1.00: 0.20/mixed_ref=1/me_range=16/chroma_me=1/trellis=2/8x8dct=1/cqm=0/deadzone=21, 11/fast_pskip=0/chroma_qp_offset=-3/threads=12/lookahead_threads=2/sliced_threads=0/nr=0/decimate=0/interlaced=0/bluray_compat=0/constrained_intra=0/bframes=3/b_pyramid=2/b_adapt=2/b_bias=0/direct=3/weightb=1/open_gop=0/weightp=2/keyint=250/keyint_min=25/scenecut=40/intra_refresh=0/rc_lookahead=50/rc=2pass/mbtree=1/bitrate=5200/ratetol=1.0/qcomp=0.60/qpmin=0/qpmax=69/qpstep=4/cplxblur=20.0/qblur=0.5/vbv_maxrate=14000/vbv_bufsize=14000/nal_hrd=none/filler=0/ip_ratio=1.40/aq=1: 1.00
    Default : Да
    Forced : Нет
    Аудио
    Идентификатор : 2
    Формат : PCM
    Идентификатор кодека : A_PCM/INT/LIT
    Продолжительность : 3 м. 10 с.
    Вид битрейта : Постоянный
    Битрейт : 1536 Кбит/сек
    Каналы : 2 канала
    Частота : 48, 0 КГц
    Частота кадров : 32, 001 кадра/сек (1500 SPF)
    Битовая глубина : 16 бит
    Размер потока : 35, 0 Мбайт (23%)
    Default : Да
    Forced : Нет
    Общее
    Уникальный идентификатор : 215010605541800118826586733331065313133 (0xA1C1894EB797A10E8A6DE6747E6F976D)
    Полное имя : E: YelloYello - Video Collection from ALEXnROCK mkv24 Yello - Planet Dada.mkv
    Формат : Matroska
    Версия формата : Version 2
    Размер файла : 149 Мбайт
    Продолжительность : 3 м. 9 с.
    Общий поток : 6612 Кбит/сек
    Дата кодирования : UTC 2018-05-08 19: 26: 41
    Программа кодирования : mkvmerge v7.8.0 (\'River Man\') 32bit built on Apr 3 2015 12: 11: 22
    Библиотека кодирования : libebml v1.3.1 + libmatroska v1.4.2
    Видео
    Идентификатор : 1
    Формат : AVC
    Формат/Информация : Advanced Video Codec
    Профиль формата : High@L4
    Настройки формата : CABAC/8 Ref Frames
    Параметр CABAC формата : Да
    Параметр RefFrames формата : 8 кадров
    Идентификатор кодека : V_MPEG4/ISO/AVC
    Продолжительность : 3 м. 9 с.
    Номинальный битрейт : 5200 Кбит/сек
    Ширина : 1280 пикселей
    Высота : 936 пикселей
    Соотношение сторон : 4: 3
    Режим частоты кадров : Постоянный
    Частота кадров : 25, 000 кадров/сек
    Цветовое пространство : YUV
    Субдискретизация насыщенности : 4: 2: 0
    Битовая глубина : 8 бит
    Тип развёртки : Прогрессивная
    Бит/(Пиксели*Кадры) : 0.174
    Библиотека кодирования : x264 core 146 r2538 121396c
    Настройки программы : cabac=1/ref=8/deblock=1: -1: -1/analyse=0x3: 0x113/me=umh/subme=7/psy=1/psy_rd=1.00: 0.20/mixed_ref=1/me_range=16/chroma_me=1/trellis=2/8x8dct=1/cqm=0/deadzone=21, 11/fast_pskip=0/chroma_qp_offset=-3/threads=12/lookahead_threads=2/sliced_threads=0/nr=0/decimate=0/interlaced=0/bluray_compat=0/constrained_intra=0/bframes=3/b_pyramid=2/b_adapt=2/b_bias=0/direct=3/weightb=1/open_gop=0/weightp=2/keyint=250/keyint_min=25/scenecut=40/intra_refresh=0/rc_lookahead=50/rc=2pass/mbtree=1/bitrate=5200/ratetol=1.0/qcomp=0.60/qpmin=0/qpmax=69/qpstep=4/cplxblur=20.0/qblur=0.5/vbv_maxrate=14000/vbv_bufsize=14000/nal_hrd=none/filler=0/ip_ratio=1.40/aq=1: 1.00
    Default : Да
    Forced : Нет
    Аудио
    Идентификатор : 2
    Формат : PCM
    Идентификатор кодека : A_PCM/INT/LIT
    Продолжительность : 3 м. 9 с.
    Вид битрейта : Постоянный
    Каналы : 2 канала
    Частота : 48, 0 КГц
    Битовая глубина : 16 бит
    Default : Да
    Forced : Нет
    Общее
    Уникальный идентификатор : 170205067845191972022732862483239359363 (0x800C4DBE4C078793AB651F8AFFC95383)
    Полное имя : E: YelloYello - Video Collection from ALEXnROCK mkv25 Yello - Till Tomorrow.mkv
    Формат : Matroska
    Версия формата : Version 4/Version 2
    Размер файла : 248 Мбайт
    Продолжительность : 5 м. 8 с.
    Общий поток : 6740 Кбит/сек
    Дата кодирования : UTC 2018-05-09 21: 47: 14
    Программа кодирования : mkvmerge v9.8.0 (\'Kuglblids\') 64bit
    Библиотека кодирования : libebml v1.3.4 + libmatroska v1.4.5
    Видео
    Идентификатор : 1
    Формат : AVC
    Формат/Информация : Advanced Video Codec
    Профиль формата : High@L4
    Настройки формата : CABAC/8 Ref Frames
    Параметр CABAC формата : Да
    Параметр RefFrames формата : 8 кадров
    Идентификатор кодека : V_MPEG4/ISO/AVC
    Продолжительность : 5 м. 8 с.
    Битрейт : 5200 Кбит/сек
    Ширина : 1280 пикселей
    Высота : 720 пикселей
    Соотношение сторон : 16: 9
    Режим частоты кадров : Постоянный
    Частота кадров : 25, 000 кадров/сек
    Цветовое пространство : YUV
    Субдискретизация насыщенности : 4: 2: 0
    Битовая глубина : 8 бит
    Тип развёртки : Прогрессивная
    Бит/(Пиксели*Кадры) : 0.226
    Размер потока : 191 Мбайт (77%)
    Библиотека кодирования : x264 core 146 r2538 121396c
    Настройки программы : cabac=1/ref=8/deblock=1: -1: -1/analyse=0x3: 0x113/me=umh/subme=7/psy=1/psy_rd=1.00: 0.20/mixed_ref=1/me_range=16/chroma_me=1/trellis=2/8x8dct=1/cqm=0/deadzone=21, 11/fast_pskip=0/chroma_qp_offset=-3/threads=12/lookahead_threads=2/sliced_threads=0/nr=0/decimate=0/interlaced=0/bluray_compat=0/constrained_intra=0/bframes=3/b_pyramid=2/b_adapt=2/b_bias=0/direct=3/weightb=1/open_gop=0/weightp=2/keyint=250/keyint_min=25/scenecut=40/intra_refresh=0/rc_lookahead=50/rc=2pass/mbtree=1/bitrate=5200/ratetol=1.0/qcomp=0.60/qpmin=0/qpmax=69/qpstep=4/cplxblur=20.0/qblur=0.5/vbv_maxrate=14000/vbv_bufsize=14000/nal_hrd=none/filler=0/ip_ratio=1.40/aq=1: 1.00
    Default : Да
    Forced : Нет
    Аудио
    Идентификатор : 2
    Формат : PCM
    Идентификатор кодека : A_PCM/INT/LIT
    Продолжительность : 5 м. 8 с.
    Вид битрейта : Постоянный
    Битрейт : 1536 Кбит/сек
    Каналы : 2 канала
    Частота : 48, 0 КГц
    Частота кадров : 32, 002 кадра/сек (1500 SPF)
    Битовая глубина : 16 бит
    Размер потока : 56, 5 Мбайт (23%)
    Default : Да
    Forced : Нет
    Общее
    Уникальный идентификатор : 179670790323323306206149376240569530444 (0x872B55E4BD5D2B7286B875E365BFB84C)
    Полное имя : E: YelloYello - Video Collection from ALEXnROCK mkv26 Yello - Expert.mkv
    Формат : Matroska
    Версия формата : Version 2
    Размер файла : 141 Мбайт
    Продолжительность : 2 м. 55 с.
    Общий поток : 6742 Кбит/сек
    Дата кодирования : UTC 2018-05-08 20: 52: 19
    Программа кодирования : mkvmerge v7.8.0 (\'River Man\') 32bit built on Apr 3 2015 12: 11: 22
    Библиотека кодирования : libebml v1.3.1 + libmatroska v1.4.2
    Видео
    Идентификатор : 1
    Формат : AVC
    Формат/Информация : Advanced Video Codec
    Профиль формата : High@L4
    Настройки формата : CABAC/8 R
    Рейтинг →
     (голосов: 1, оценка 3/5, голосовать можно 1 раз )

    Другие торренты по теме:



      Комментарии (0):

      Информация

      Информация

        Посетители, находящиеся в группе Гости, не могут оставлять комментарии в данной новости.

        ↓ Меню




        ↓ Опрос

        Вы добавили сайт в закладки?
        Да
        Нет


        Top 10 за месяц (Другое)