.
Авторизация | Регистрация
Хочешь лучшие торренты? Добавь свой email!
Добавить

Торрент скачать бесплатно

  • support: webmaster@btracker.org
» » Анон / Anon (2018) WEB-DL [H.264 / 1080p-LQ] торрент скачать бесплатно


    Анон / Anon (2018) WEB-DL [H.264 / 1080p-LQ] торрент скачать бесплатно

    Опубликовал: Админ | Дата: 10-05-2018, 05:00 | .torrent скачали: 3

    Анон / Anon (2018) WEB-DL [H.264 / 1080p-LQ]Производство: Германия, США/K5 Media Group
    Жанр: Фантастика, Триллер
    Режиссер: Эндрю Никкол

    Актеры
    Клайв Оуэн, Афия Беннетт, Morgan Allen, Jeffrey Men, Джеймс Там, Аманда Сайфред, Джонатан Поттс, Рэйчел Робертс, Toyin Ishola, Себастьян Пижотт, Дэвид Сторч, Билли Пэррот

    Описание

    Идеальное общество будущего: режим тотального надзора, отсутствие личной жизни, приватных территорий и гражданских прав. Казалось бы, в полностью контролируемом государстве нет места ошибкам и правонарушениям. Но однажды детектив Сол Фриленд знакомится с девушкой, которая не числится в базах данных. Перед копом приоткрывается дверь преступного мира новой эры…

    Возраст: 16+ (зрителям, достигшим 16 лет)
    Дата мировой премьеры: 3 мая 2018
    Дата российской премьеры: 10 мая 2018
    Релиз от: Ash61
    Продолжительность: 01: 40: 10
    Качество видео: WEB-DLRip
    Озвучка/Автор перевода: Любительский многоголосый AlphaProject
    Субтитры: русские (Форсированные), английские (SDH)
    Реклама: Нет
    Видео: AVC/H.264, 1920x1080, 4640 kbpsAVC, 24 fps
    Аудио: Аудио №1: русский/AC3/5.1/48 kHz/384 kbps/|MVO|
    Аудио: Аудио №2: английский/AC3/5.1/48 kHz/384 kbps /

    General
    Unique ID : 190615169992464268785998676374148761323 (0x8F672578C92A17EF87A5582967DA46EB)
    Complete name : D: КиноAnon(2018)WEB-DL.1080p(Rus-MVO).mkv
    Format : Matroska
    Format version : Version 2
    File size : 3.77 GiB
    Duration : 1 h 40 min
    Overall bit rate mode : Variable
    Overall bit rate : 5 383 kb/s
    Movie name : Анон/Anon (2018)
    Encoded date : UTC 2018-05-08 13: 31: 22
    Writing application : mkvmerge v5.8.0 (\'No Sleep/Pillow\') built on Sep 2 2012 15: 37: 04
    Writing library : libebml v1.2.3 + libmatroska v1.3.0
    Video
    ID : 1
    Format : AVC
    Format/Info : Advanced Video Codec
    Format profile : Main@L4
    Format settings : CABAC/3 Ref Frames
    Format settings, CABAC : Yes
    Format settings, ReFrames : 3 frames
    Codec ID : V_MPEG4/ISO/AVC
    Duration : 1 h 40 min
    Bit rate mode : Variable
    Bit rate : 4 640 kb/s
    Maximum bit rate : 6 960 kb/s
    Width : 1 920 pixels
    Height : 1 080 pixels
    Display aspect ratio : 16: 9
    Frame rate mode : Constant
    Frame rate : 24.000 FPS
    Color space : YUV
    Chroma subsampling : 4: 2: 0
    Bit depth : 8 bits
    Scan type : Progressive
    Bits/(Pixel*Frame) : 0.093
    Stream size : 3.15 GiB (84%)
    Title : WEB-DL
    Writing library : x264 core 148 r2715 7e75228
    Encoding settings : cabac=1/ref=3/deblock=1: 0: 0/analyse=0x1: 0x111/me=umh/subme=10/psy=1/psy_rd=1.00: 0.00/mixed_ref=1/me_range=24/chroma_me=1/trellis=2/8x8dct=0/cqm=0/deadzone=21, 11/fast_pskip=1/chroma_qp_offset=-2/threads=8/lookahead_threads=1/sliced_threads=0/nr=0/decimate=1/interlaced=0/bluray_compat=0/stitchable=1/constrained_intra=0/bframes=2/b_pyramid=0/b_adapt=2/b_bias=0/direct=3/weightb=1/open_gop=0/weightp=2/keyint=48/keyint_min=25/scenecut=0/intra_refresh=0/rc_lookahead=48/rc=2pass/mbtree=1/bitrate=4640/ratetol=1.0/qcomp=0.50/qpmin=6/qpmax=51/qpstep=4/cplxblur=20.0/qblur=0.5/vbv_maxrate=6960/vbv_bufsize=9280/nal_hrd=vbr/filler=0/ip_ratio=1.40/aq=1: 1.00
    Language : English
    Default : Yes
    Forced : No
    Audio #1
    ID : 2
    Format : AC-3
    Format/Info : Audio Coding 3
    Codec ID : A_AC3
    Duration : 1 h 40 min
    Bit rate mode : Constant
    Bit rate : 384 kb/s
    Channel(s) : 6 channels
    Channel positions : Front: L C R, Side: L R, LFE
    Sampling rate : 48.0 kHz
    Frame rate : 31.250 FPS (1536 SPF)
    Bit depth : 16 bits
    Compression mode : Lossy
    Stream size : 275 MiB (7%)
    Title : MVO - AlphaProject (редакция Ash61)
    Language : Russian
    Service kind : Complete Main
    Default : Yes
    Forced : No
    Audio #2
    ID : 3
    Format : AC-3
    Format/Info : Audio Coding 3
    Codec ID : A_AC3
    Duration : 1 h 40 min
    Bit rate mode : Constant
    Bit rate : 384 kb/s
    Channel(s) : 6 channels
    Channel positions : Front: L C R, Side: L R, LFE
    Sampling rate : 48.0 kHz
    Frame rate : 31.250 FPS (1536 SPF)
    Bit depth : 16 bits
    Compression mode : Lossy
    Stream size : 275 MiB (7%)
    Title : Original
    Language : English
    Service kind : Complete Main
    Default : No
    Forced : No
    Text #1
    ID : 4
    Format : UTF-8
    Codec ID : S_TEXT/UTF8
    Codec ID/Info : UTF-8 Plain Text
    Title : Форсированные (от Ash61)
    Language : Russian
    Default : Yes
    Forced : No
    Text #2
    ID : 5
    Format : UTF-8
    Codec ID : S_TEXT/UTF8
    Codec ID/Info : UTF-8 Plain Text
    Title : SDH
    Language : English
    Default : No
    Forced : No

    Скриншоты для ознакомления



    Все одноименные релизы в Клубе
    Время раздачи: до появления первых 3-5 скачавших (до появления первых 3-5 скачавших)


    Анон/Anon (2018) WEB-DL [H.264/1080p-LQ]
    Рейтинг →
     (голосов: 1, оценка 5/5, голосовать можно 1 раз )

    Другие торренты по теме:

  • Анон / Anon (2018) WEB-DLRip [Line, AD]
  • Анон / Anon (2018) WEB-DLRip
  • Анон / Anon (2018) WEB-DL [H.264 / 1080p-LQ]
  • Анон / Anon (2018) WEB-DL [1080p] ATV
  • Анон / Anon (2018) WEB-DLRip [576p] iPad
  • Анон / Anon (2018) WEB-DL [720p] ATV
  • Анон / Anon (2018) WEB-DL [1080p] ATV


    • Комментарии (0):

      Информация

      Информация

        Посетители, находящиеся в группе Гости, не могут оставлять комментарии в данной новости.

        ↓ Меню




        ↓ Опрос

        Вы добавили сайт в закладки?
        Да
        Нет


        Top 10 за месяц (Другое)