.
Авторизация | Регистрация
Хочешь лучшие торренты? Добавь свой email!
Добавить

Торрент скачать бесплатно

  • support: webmaster@btracker.org
» » Морозко (мюзикл) от ALEXnROCK (2010) DVDRip торрент скачать бесплатно


    Морозко (мюзикл) от ALEXnROCK (2010) DVDRip торрент скачать бесплатно

    Опубликовал: Админ | Дата: 10-05-2018, 05:00 | .torrent скачали: 2

    Морозко (мюзикл) от ALEXnROCK (2010) DVDRipЖанр: Pop
    Год выпуска: 2010

    Описание

    Яркий и юморной мюзикл, с очень красивыми костюмами и декорациями. Видео прошло 13ти часовую реставрационную обработку. Звук оригинальный оставил, так как CD не нашел в сети. Да пребудет с нами качественная музыка! Все лучшее для вас. ALEXnROCK
    Продолжительность: 01: 42: 50
    Качество: DVDRip
    Видео : 720x408 (16: 9) 2500Kbps 25fps
    Аудио : Mp3 48000KHz, 2 ch, 256 Kbps
    Треклист:
    01. Вступление
    02. Все участники - Песня о сказке
    03. Юрий Гальцев и Оскар Кучера - Парни, парни
    04. Ани Лорак - Я встретил девушку
    05. Юрий Стоянов и Кристина Орбакайте - Все в сказке бывает
    06. Сергей Зверев, Алексей Чумаков, Елена Воробей, Ефим Шифрин, Верка Сердючка - Песня стилиста
    07. Лолита - Moscow
    08. Елена Воробей и Игорь Маменко - Кулинарное шоу
    09. Николай Басков и Анастасия Задорожная - Шаг сделать надо
    10. Верка Сердючка, Ефим Шифрим - Песенка на суде
    11. Данилец и Моисеенко - Песенка строителей
    12. Николай Бандурин, Гия Гагуа, Карен Аванесян - Синий иней
    13. Юрий Аскаров - Песенка Остапа
    14. Юрий Стоянов - Мы поедем, мы по мчимся
    15. Филипп Киркоров - Танки грязи не бояться
    16. Новые русские бабки - Помоги мне
    17. Юрий Стоянов, Кристина Орбакайте, Анастасия Задорожная - Любовь и бедность
    18. Верка Сердючка, Елена Воробей - Ах, мамочка
    19. Михаил Полицеймако, Ефим Шифрин - Любит народ лечиться
    20. Николай Басков - И как мне жить
    21. Все участники - А снег идет

    Общее
    Морозко ALEXnROCK.avi
    Формат : AVI
    Формат/Информация : Audio Video Interleave
    Размер файла : 1, 99 Гбайт
    Продолжительность : 1 ч. 42 м.
    Общий поток : 2764 Кбит/сек
    Программа кодирования : VirtualDubMod 1.5.10.3 |www.virtualdub-fr.org|| (build 2550/release)
    Библиотека кодирования : VirtualDubMod build 2550/release
    Видео
    Идентификатор : 0
    Формат : MPEG-4 Visual
    Профиль формата : Advanced Simple@L5
    Настройки формата : BVOP2
    Параметр BVOP формата : 2
    Параметр QPel формата : Нет
    Параметр GMC формата : Без точки перехода
    Параметр матрицы формата : Default (H.263)
    Режим смешивания : Сжатый битовый поток
    Идентификатор кодека : XVID
    Идентификатор кодека/Подсказка : XviD
    Продолжительность : 1 ч. 42 м.
    Битрейт : 2498 Кбит/сек
    Ширина : 720 пикселей
    Высота : 408 пикселей
    Соотношение сторон : 16: 9
    Частота кадров : 25, 000 кадров/сек
    Цветовое пространство : YUV
    Субдискретизация насыщенности : 4: 2: 0
    Битовая глубина : 8 бит
    Тип развёртки : Прогрессивная
    Метод сжатия : С потерями
    Бит/(Пиксели*Кадры) : 0.340
    Размер потока : 1, 79 Гбайт (90%)
    Библиотека кодирования : XviD 1.2.1 (UTC 2008-12-04)
    Аудио
    Идентификатор : 1
    Формат : MPEG Audio
    Версия формата : Version 1
    Профиль формата : Layer 3
    Идентификатор кодека : 55
    Идентификатор кодека/Подсказка : MP3
    Продолжительность : 1 ч. 42 м.
    Вид битрейта : Постоянный
    Битрейт : 256 Кбит/сек
    Каналы : 2 канала
    Частота : 48, 0 КГц
    Метод сжатия : С потерями
    Размер потока : 188 Мбайт (9%)
    Выравнивание : Соединение по промежуткам
    Продолжительность промежутка : 40 мс. (1, 00 видеокадр)
    Время предзагрузки промежутка : 504 мс.
    Библиотека кодирования : LAME3.99r
    Настройки программы : -m s -V 4 -q 0 -lowpass 19.7

    Скриншоты для ознакомления



    Все одноименные релизы в Клубе
    Время раздачи: 24/7 (до появления первых 3-5 скачавших)


    Морозко (мюзикл) от ALEXnROCK (2010) DVDRip
    Рейтинг →
     (голосов: 1, оценка 3/5, голосовать можно 1 раз )

    Другие торренты по теме:

  • Морозко (мюзикл) от ALEXnROCK (2010) DVDRip [H.264 / 720p-LQ]


    • Комментарии (0):

      Информация

      Информация

        Посетители, находящиеся в группе Гости, не могут оставлять комментарии в данной новости.

        ↓ Меню




        ↓ Опрос

        Вы добавили сайт в закладки?
        Да
        Нет


        Top 10 за месяц (Другое)