.
Авторизация | Регистрация
Хочешь лучшие торренты? Добавь свой email!
Добавить

Торрент скачать бесплатно

  • support: webmaster@btracker.org
» » Стефани / Stephanie (2017) WEB-DLRip [Line, AD] торрент скачать бесплатно


    Стефани / Stephanie (2017) WEB-DLRip [Line, AD] торрент скачать бесплатно

    Опубликовал: Админ | Дата: 28-04-2018, 05:00 | .torrent скачали: 1

    Стефани / Stephanie (2017) WEB-DLRip [Line, AD]Производство: США
    Жанр: Ужасы, Фэнтези, Драма, Детектив
    Режиссер: Акива Голдсман

    Актеры
    Анна Торв, Фрэнк Грилло, Кеннет Чои, Хэролд Перрино, Эллен Дубин, Шри Крукс, Дерик Маккейб, Адам Лазарр-Уайт, Свати Капила

    Описание

    Девочка с необычными способностями считалась сиротой, пока вдруг не появились мужчина и женщина, утверждающие, что они её родители.

    Возраст: этот продукт не был классифицирован
    Рейтинг MPAA: этот продукт не был классифицирован
    Дата мировой премьеры: 27 апреля 2017
    Продолжительность: 01: 28: 17
    Качество видео: WEB-DLRip
    Перевод: Дублированный (Чистый звук)
    Субтитры: Отсутствуют
    Реклама: Присутствуют вставки аудио и видео рекламы
    Видео: Xvid, 720х304, ~1813 kbps
    Аудио: AC3, 2 ch, 384 kbps

    Общее
    Полное имя : D: ТоррентыСтефани.2017.D.WEB-DLRip.avi
    Формат : AVI
    Формат/Информация : Audio Video Interleave
    Размер файла : 1, 36 Гбайт
    Продолжительность : 1 ч. 28 м.
    Общий поток : 2207 Кбит/сек
    Программа кодирования : VirtualDubMod 1.5.10.2 (build 2540/release)
    Библиотека кодирования : VirtualDubMod build 2540/release
    Видео
    Идентификатор : 0
    Формат : MPEG-4 Visual
    Профиль формата : Advanced Simple@L5
    Настройки формата : BVOP2/Custom Matrix
    Параметр BVOP формата : 2
    Параметр QPel формата : Нет
    Параметр GMC формата : Без точки перехода
    Параметр матрицы формата : Выборочная
    Идентификатор кодека : XVID
    Идентификатор кодека/Подсказка : XviD
    Продолжительность : 1 ч. 28 м.
    Битрейт : 1813 Кбит/сек
    Ширина : 720 пикселей
    Высота : 304 пикселя
    Соотношение сторон : 2, 35: 1
    Частота кадров : 23, 976 (24000/1001) кадра/сек
    Цветовое пространство : YUV
    Субдискретизация насыщенности : 4: 2: 0
    Битовая глубина : 8 бит
    Тип развёртки : Прогрессивная
    Метод сжатия : С потерями
    Бит/(Пиксели*Кадры) : 0.346
    Размер потока : 1, 12 Гбайт (82%)
    Библиотека кодирования : XviD 1.2.1 (UTC 2008-12-04)
    Аудио
    Идентификатор : 1
    Формат : AC-3
    Формат/Информация : Audio Coding 3
    Идентификатор кодека : 2000
    Продолжительность : 1 ч. 28 м.
    Вид битрейта : Постоянный
    Битрейт : 384 Кбит/сек
    Каналы : 2 канала
    Расположение каналов : Front: L R
    Частота : 48, 0 КГц
    Частота кадров : 31, 250 кадров/сек (1536 SPF)
    Битовая глубина : 16 бит
    Метод сжатия : С потерями
    Размер потока : 242 Мбайт (17%)
    Выравнивание : Разделение по промежуткам
    Продолжительность промежутка : 42 мс. (1, 00 видеокадр)
    Время предзагрузки промежутка : 500 мс.
    ServiceKind/String : Complete Main

    Скриншоты для ознакомления



    Все одноименные релизы в Клубе
    Время раздачи: с 10.00 до 21.00 (до появления первых 3-5 скачавших)


    Стефани/Stephanie (2017) WEB-DLRip [Line, AD]
    Рейтинг →
     (голосов: 1, оценка 4/5, голосовать можно 1 раз )

    Другие торренты по теме:

  • Стефани Майер Морган | Сумерки (2016) [MP3]
  • Стефани Майер Морган | Затмение (2016) [MP3]
  • Стефани Майер Морган | Новолуние (2016) [MP3]
  • Стефани Майер Морган | Рассвет (2016) [MP3]
  • Стефани Леманн | Искусство раздевания (2007) [FB2, RTF, DOC, TXT]
  • Стефани Перри | Заговор корпорации Umbrella (2016) [MP3]
  • Стефани Майер | Гостья (2011) [MP3]
  • Стефани Майер | Сумерки / Жизнь и смерть: Сумерки. Переосмысление [сборник] (2017) [FB2]


    • Комментарии (0):

      Информация

      Информация

        Посетители, находящиеся в группе Гости, не могут оставлять комментарии в данной новости.

        ↓ Меню




        ↓ Опрос

        Вы добавили сайт в закладки?
        Да
        Нет


        Top 10 за месяц (Другое)