.
Авторизация | Регистрация
Хочешь лучшие торренты? Добавь свой email!
Добавить

Торрент скачать бесплатно

  • support: webmaster@btracker.org
» » Новые приключения Аладдина (мюзикл) от ALEXnROCK (2011) DVDRip [H.264 / 720p-LQ] торрент скачать бесплатно


    Новые приключения Аладдина (мюзикл) от ALEXnROCK (2011) DVDRip [H.264 / 720p-LQ] торрент скачать бесплатно

    Опубликовал: Админ | Дата: 12-04-2018, 05:00 | .torrent скачали: 0

    Новые приключения Аладдина (мюзикл) от ALEXnROCK (2011) DVDRip [H.264 / 720p-LQ]Год выпуска: 2011
    Жанр: Pop

    Описание

    В экранизации любимой всеми арабской сказки роль Аладдина досталась Оскару Кучере. По замыслу авторов, Аладдин – это… русский охранник Алеша, который волей случая попал в далекую страну, где и получил это имя и, конечно же, нашел свою царевну – великолепную Будур (Ани Лорак). Яркий и юморной мюзикл, с очень красивыми костюмами и декорациями. Видео прошло 11ти часовую реставрационную обработку. Звук оригинальный оставил, так как CD не нашел в сети. Да пребудет с нами качественная музыка! Все лучшее для вас. ALEXnROCK
    Продолжительность: 01: 40: 23
    Качество: DVDRip
    Видео : AVC/H.264, 1280x720 (16x9), 5100 Kbps
    Аудио Mp3 256Kbps 48000Hz
    Треклист:
    01. Все участники - Вступительная песня
    02. Сосо Павлиашвили - Это Восток
    03. Елена Воробей, Анастасия Стоцкая, Анна Семенович - Песня мамы
    04. Сергей Лазарев - Песня Принцессе
    05. Юрий Гальцев, Ефим Шифрин, Юрий Стоянов - Если б я был султан
    06. Верка Сердючка - Песня Джинна
    07. Игорь Маменко - Песня купца
    08. Пьер Нарцисс, Сергей Зверев, Обид Асомов - Всё включено
    09. Оскар Кучера, Ани Лорак - Песня Аладдина и Будур
    10. Гия Гагуа, Карен Аванесян, Юрий Аскаров - Страдаем
    11. Анастасия Стоцкая, Анна Семенович - Промашки могут быть
    12. Оскар Кучера, Елена Воробей - Мальчик хочет в Багдад
    13. Филипп Киркоров - Лейла
    14. Новые русские бабки - Песня принцесс
    15. НиколайБасков - Как восхитительны в России женихи
    16. Юрий Стоянов - Песня стюардессы
    17. Лолита и и Дискотека Авария - Песня разбойников
    18. Лолита, Юрий Стоянов - Дуэт
    19. Все участники - Финальная песня

    Общее
    Уникальный идентификатор : 229171994768848169288402506605298173264 (0xAC68EBB3EA1F152690DFA9C414ABC550)
    Полное имя : Новые приключения Аладдина.mkv
    Формат : Matroska
    Версия формата : Version 2
    Размер файла : 3, 83 Гбайт
    Продолжительность : 1 ч. 40 м.
    Общий поток : 5458 Кбит/сек
    Дата кодирования : UTC 2018-04-06 23: 19: 22
    Программа кодирования : mkvmerge v7.8.0 (\'River Man\') 32bit built on Apr 3 2015 12: 11: 22
    Библиотека кодирования : libebml v1.3.1 + libmatroska v1.4.2
    Видео
    Идентификатор : 1
    Формат : AVC
    Формат/Информация : Advanced Video Codec
    Профиль формата : High@L4
    Настройки формата : CABAC/8 Ref Frames
    Параметр CABAC формата : Да
    Параметр RefFrames формата : 8 кадров
    Идентификатор кодека : V_MPEG4/ISO/AVC
    Продолжительность : 1 ч. 40 м.
    Битрейт : 5200 Кбит/сек
    Ширина : 1280 пикселей
    Высота : 720 пикселей
    Соотношение сторон : 16: 9
    Режим частоты кадров : Постоянный
    Частота кадров : 25, 000 кадров/сек
    Цветовое пространство : YUV
    Субдискретизация насыщенности : 4: 2: 0
    Битовая глубина : 8 бит
    Тип развёртки : Прогрессивная
    Бит/(Пиксели*Кадры) : 0.226
    Размер потока : 3, 57 Гбайт (93%)
    Библиотека кодирования : x264 core 146 r2538 121396c
    Настройки программы : cabac=1/ref=8/deblock=1: -1: -1/analyse=0x3: 0x113/me=umh/subme=7/psy=1/psy_rd=1.00: 0.20/mixed_ref=1/me_range=16/chroma_me=1/trellis=2/8x8dct=1/cqm=0/deadzone=21, 11/fast_pskip=0/chroma_qp_offset=-3/threads=12/lookahead_threads=2/sliced_threads=0/nr=0/decimate=0/interlaced=0/bluray_compat=0/constrained_intra=0/bframes=3/b_pyramid=2/b_adapt=2/b_bias=0/direct=3/weightb=1/open_gop=0/weightp=2/keyint=250/keyint_min=25/scenecut=40/intra_refresh=0/rc_lookahead=50/rc=2pass/mbtree=1/bitrate=5200/ratetol=1.0/qcomp=0.60/qpmin=0/qpmax=69/qpstep=4/cplxblur=20.0/qblur=0.5/vbv_maxrate=14000/vbv_bufsize=14000/nal_hrd=none/filler=0/ip_ratio=1.40/aq=1: 1.00
    Default : Да
    Forced : Нет
    Аудио
    Идентификатор : 2
    Формат : MPEG Audio
    Версия формата : Version 1
    Профиль формата : Layer 3
    Идентификатор кодека : A_MPEG/L3
    Идентификатор кодека/Подсказка : MP3
    Продолжительность : 1 ч. 40 м.
    Вид битрейта : Постоянный
    Битрейт : 256 Кбит/сек
    Каналы : 2 канала
    Частота : 48, 0 КГц
    Метод сжатия : С потерями
    Размер потока : 184 Мбайт (5%)
    Библиотека кодирования : LAME3.99r
    Настройки программы : -m s -V 4 -q 0 -lowpass 19.7
    Default : Да
    Forced : Нет

    Скриншоты для ознакомления



    Мои раздачи
    Все одноименные релизы в Клубе
    Время раздачи: 24/7 (до появления первых 3-5 скачавших)


    Новые приключения Аладдина (мюзикл) от ALEXnROCK (2011) DVDRip [H.264/720p-LQ]
    Рейтинг →
     (голосов: 1, оценка 4/5, голосовать можно 1 раз )

    Другие торренты по теме:

  • Новые приключения старой Кристин / The New Adventures of Old Christine (2009) HDTVRip [сезон 5, серии 1-5 из 21] ViruseProject (обновляемая) скачать через торрент бесплатно
  • Неизвестная версия: Новые приключения неуловимых (2008) SATRip скачать через торрент бесплатно
  • Новые приключения Ниро Вульфа и Арчи Гудвина (2004) DVDRip (4 фильма) [H.264] скачать через торрент бесплатно
  • Максим Алёшин | Новые приключения деревянной девочки, или Возвращение Буратины (2012) [FB2]
  • Смешарики 215 серий + Пин-код, Новые приключения, Смешалости 121 серий в 3D + Азбуки 54 серии [без заставок / титр (3D)] (2003-2015) DVDRip [обновляемая]
  • Новые приключения Билла и Теда / Bill & Teds Bogus Journey (1991) WEB-DLRip [H.264] скачать через торрент бесплатно
  • Новые приключения кота Леопольда. Новогодняя ёлка (2015) WEBRip [H.264 / 720p-LQ] скачать через торрент бесплатно
  • Новые приключения кота Леопольда. Новогодняя ёлка (2015) WEBRip [H.264 / 1080p-LQ] скачать через торрент бесплатно


    • Комментарии (0):

      Информация

      Информация

        Посетители, находящиеся в группе Гости, не могут оставлять комментарии в данной новости.

        ↓ Меню




        ↓ Опрос

        Вы добавили сайт в закладки?
        Да
        Нет


        Top 10 за месяц (Другое)