.
Авторизация | Регистрация
Хочешь лучшие торренты? Добавь свой email!
Добавить

Торрент скачать бесплатно

  • support: webmaster@btracker.org
» » Морозко (мюзикл) от ALEXnROCK (2010) DVDRip [H.264 / 720p-LQ] торрент скачать бесплатно


    Морозко (мюзикл) от ALEXnROCK (2010) DVDRip [H.264 / 720p-LQ] торрент скачать бесплатно

    Опубликовал: Админ | Дата: 8-04-2018, 05:00 | .torrent скачали: 0

    Морозко (мюзикл) от ALEXnROCK (2010) DVDRip [H.264 / 720p-LQ]Год выпуска: 2010
    Жанр: Pop

    Описание

    Яркий и юморной мюзикл, с очень красивыми костюмами и декорациями. Видео прошло 13ти часовую реставрационную обработку. Звук оригинальный оставил, так как CD не нашел в сети. Да пребудет с нами качественная музыка! Все лучшее для вас. ALEXnROCK
    Продолжительность: 01: 42: 50
    Качество: DVDRip
    Видео : AVC/H.264, 1280x720 (16x9), 5100 Kbps
    Аудио MP3, 2 ch, 256 Kbps
    Треклист:
    01. Вступление
    02. Все участники - Песня о сказке
    03. Юрий Гальцев и Оскар Кучера - Парни, парни
    04. Ани Лорак - Я встретил девушку
    05. Юрий Стоянов и Кристина Орбакайте - Все в сказке бывает
    06. Сергей Зверев, Алексей Чумаков, Елена Воробей, Ефим Шифрин, Верка Сердючка - Песня стилиста
    07. Лолита - Moscow
    08. Елена Воробей и Игорь Маменко - Кулинарное шоу
    09. Николай Басков и Анастасия Задорожная - Шаг сделать надо
    10. Верка Сердючка, Ефим Шифрим - Песенка на суде
    11. Данилец и Моисеенко - Песенка строителей
    12. Николай Бандурин, Гия Гагуа, Карен Аванесян - Синий иней
    13. Юрий Аскаров - Песенка Остапа
    14. Юрий Стоянов - Мы поедем, мы по мчимся
    15. Филипп Киркоров - Танки грязи не бояться
    16. Новые русские бабки - Помоги мне
    17. Юрий Стоянов, Кристина Орбакайте, Анастасия Задорожная - Любовь и бедность
    18. Верка Сердючка, Елена Воробей - Ах, мамочка
    19. Михаил Полицеймако, Ефим Шифрин - Любит народ лечиться
    20. Николай Басков - И как мне жить
    21. Все участники - А снег идет

    Общее
    Уникальный идентификатор : 237114362502541163466213703100065841936 (0xB26290AA5084A7DD90C534F877BB0310)
    Полное имя : Морозко ALEXnROCK.mkv
    Формат : Matroska
    Версия формата : Version 2
    Размер файла : 3, 92 Гбайт
    Продолжительность : 1 ч. 42 м.
    Общий поток : 5458 Кбит/сек
    Дата кодирования : UTC 2018-04-05 17: 21: 33
    Программа кодирования : mkvmerge v7.8.0 (\'River Man\') 32bit built on Apr 3 2015 12: 11: 22
    Библиотека кодирования : libebml v1.3.1 + libmatroska v1.4.2
    Видео
    Идентификатор : 1
    Формат : AVC
    Формат/Информация : Advanced Video Codec
    Профиль формата : High@L4
    Настройки формата : CABAC/8 Ref Frames
    Параметр CABAC формата : Да
    Параметр RefFrames формата : 8 кадров
    Идентификатор кодека : V_MPEG4/ISO/AVC
    Продолжительность : 1 ч. 42 м.
    Битрейт : 5200 Кбит/сек
    Ширина : 1280 пикселей
    Высота : 720 пикселей
    Соотношение сторон : 16: 9
    Режим частоты кадров : Постоянный
    Частота кадров : 25, 000 кадров/сек
    Цветовое пространство : YUV
    Субдискретизация насыщенности : 4: 2: 0
    Битовая глубина : 8 бит
    Тип развёртки : Прогрессивная
    Бит/(Пиксели*Кадры) : 0.226
    Размер потока : 3, 66 Гбайт (93%)
    Библиотека кодирования : x264 core 146 r2538 121396c
    Настройки программы : cabac=1/ref=8/deblock=1: -1: -1/analyse=0x3: 0x113/me=umh/subme=7/psy=1/psy_rd=1.00: 0.20/mixed_ref=1/me_range=16/chroma_me=1/trellis=2/8x8dct=1/cqm=0/deadzone=21, 11/fast_pskip=0/chroma_qp_offset=-3/threads=12/lookahead_threads=2/sliced_threads=0/nr=0/decimate=0/interlaced=0/bluray_compat=0/constrained_intra=0/bframes=3/b_pyramid=2/b_adapt=2/b_bias=0/direct=3/weightb=1/open_gop=0/weightp=2/keyint=250/keyint_min=25/scenecut=40/intra_refresh=0/rc_lookahead=50/rc=2pass/mbtree=1/bitrate=5200/ratetol=1.0/qcomp=0.60/qpmin=0/qpmax=69/qpstep=4/cplxblur=20.0/qblur=0.5/vbv_maxrate=14000/vbv_bufsize=14000/nal_hrd=none/filler=0/ip_ratio=1.40/aq=1: 1.00
    Default : Да
    Forced : Нет
    Аудио
    Идентификатор : 2
    Формат : MPEG Audio
    Версия формата : Version 1
    Профиль формата : Layer 3
    Идентификатор кодека : A_MPEG/L3
    Идентификатор кодека/Подсказка : MP3
    Продолжительность : 1 ч. 42 м.
    Вид битрейта : Постоянный
    Битрейт : 256 Кбит/сек
    Каналы : 2 канала
    Частота : 48, 0 КГц
    Метод сжатия : С потерями
    Размер потока : 188 Мбайт (5%)
    Библиотека кодирования : LAME3.99r
    Настройки программы : -m s -V 4 -q 0 -lowpass 19.7
    Default : Да
    Forced : Нет
    Общее
    Полное имя : E: МорозкоМорозко mkv ALEXnROCKМорозко.jpg
    Формат : JPEG
    Размер файла : 425 Кбайт
    Изображения
    Формат : JPEG
    Ширина : 804 пикселя
    Высота : 720 пикселей
    Цветовое пространство : YUV
    Субдискретизация насыщенности : 4: 2: 0
    Битовая глубина : 8 бит
    Метод сжатия : С потерями
    Размер потока : 425 Кбайт (100%)

    Скриншоты для ознакомления



    Мои раздачи
    Все одноименные релизы в Клубе
    Время раздачи: 24/7 (до появления первых 3-5 скачавших)


    Морозко (мюзикл) от ALEXnROCK (2010) DVDRip [H.264/720p-LQ]
    Рейтинг →
     (голосов: 1, оценка 3/5, голосовать можно 1 раз )

    Другие торренты по теме:

  • Морозко (мюзикл) от ALEXnROCK (2010) DVDRip


    • Комментарии (0):

      Информация

      Информация

        Посетители, находящиеся в группе Гости, не могут оставлять комментарии в данной новости.

        ↓ Меню




        ↓ Опрос

        Вы добавили сайт в закладки?
        Да
        Нет


        Top 10 за месяц (Другое)