.
Авторизация | Регистрация
Хочешь лучшие торренты? Добавь свой email!
Добавить

Торрент скачать бесплатно

  • support: webmaster@btracker.org
» » Вниз по реке / En amont du fleuve (2016) HDTVRip [MVO] [AD] торрент скачать бесплатно


    Вниз по реке / En amont du fleuve (2016) HDTVRip [MVO] [AD] торрент скачать бесплатно

    Опубликовал: Админ | Дата: 6-04-2018, 05:00 | .torrent скачали: 2

    Вниз по реке / En amont du fleuve (2016) HDTVRip [MVO] [AD]Производство: Нидерланды, Бельгия, Хорватия/Croatian Audiovisual Centre, Kinorama, La Direction de L\'Audiovisual de Communaute Francaise de Belgique
    Жанр: Драма, Приключения
    Режиссер: Марион Хэнсель

    Актеры
    Оливье Гурме, Серхи Лопес, Джон Линч, Игорь Ковач, Никса Бутижер, Damir Raic, Petar Dukic, Ana Nekic

    Описание

    Родные братья Омер и Джое не знали о существовании друг друга на протяжении полувека. Они познакомились лишь после смерти отца в хорватском монастыре, когда обоим было уже под 50. На небольшом катере Омар и Джое отправляются вниз по реке, чтобы выяснить обстоятельства смерти отца. Во время похода к монастырю они встречают Шона, загадочного ирландского авантюриста, который соглашается проводить их до места назначения.

    Релиз от: GreenРай Studio
    Продолжительность: 01: 29: 11
    Качество видео: HDTVRip
    Перевод: Многоголосый закадровый, любительский (GreenРай Studio)
    Субтитры: отсутствуют
    Реклама: присутствуют аудио, видео и текстовые вставки рекламы
    Видео: Xvid, 720x296, ~1737 Kbps
    Аудио: AC3, 2 ch, 448 Kbps

    General
    Complete name : /media/win/TORRENT/UPLOAD_TORRENTS/En.amont.du.fleuve.2016.P.HDTVRip.avi
    Format : AVI
    Format/Info : Audio Video Interleave
    File size : 1.37 GiB
    Duration : 1 h 29 min
    Overall bit rate : 2 195 kb/s
    Writing application : VirtualDubMod 1.5.10.2 (build 2540/release)
    Writing library : VirtualDubMod build 2540/release
    Video
    ID : 0
    Format : MPEG-4 Visual
    Format profile : Advanced Simple@L5
    Format settings : BVOP2
    Format settings, BVOP : 2
    Format settings, QPel : No
    Format settings, GMC : No warppoints
    Format settings, Matrix : Default (MPEG)
    Codec ID : XVID
    Codec ID/Hint : XviD
    Duration : 1 h 29 min
    Bit rate : 1 737 kb/s
    Width : 720 pixels
    Height : 296 pixels
    Display aspect ratio : 2.40: 1
    Frame rate : 25.000 FPS
    Color space : YUV
    Chroma subsampling : 4: 2: 0
    Bit depth : 8 bits
    Scan type : Progressive
    Compression mode : Lossy
    Bits/(Pixel*Frame) : 0.326
    Stream size : 1.08 GiB (79%)
    Writing library : XviD 1.2.1 (UTC 2008-12-04)
    Audio
    ID : 1
    Format : AC-3
    Format/Info : Audio Coding 3
    Codec ID : 2000
    Duration : 1 h 29 min
    Bit rate mode : Constant
    Bit rate : 448 kb/s
    Channel(s) : 2 channels
    Channel positions : Front: L R
    Sampling rate : 48.0 kHz
    Frame rate : 31.250 FPS (1536 SPF)
    Bit depth : 16 bits
    Compression mode : Lossy
    Stream size : 286 MiB (20%)
    Alignment : Split accross interleaves
    Interleave, duration : 40 ms (1.00 video frame)
    Interleave, preload duration : 500 ms
    Service kind : Complete Main

    Скриншоты для ознакомления



    Все одноименные релизы в Клубе
    Время раздачи: с 09: 00 до 21: 00 до пяти скачавших (до появления первых 3-5 скачавших)


    Вниз по реке/En amont du fleuve (2016) HDTVRip [MVO] [AD]
    Рейтинг →
     (голосов: 1, оценка 5/5, голосовать можно 1 раз )

    Другие торренты по теме:

  • Ангел, ангел, вниз мы идем / Культ проклятых / Cult of the Damned / Angel, Angel, Down We Go (1969) HDTV [H.264 / 1080i] скачать через торрент бесплатно
  • 800 лье вниз по Амазонке / Eight Hundred Leagues Down the Amazon (1993) DVDRip скачать через торрент бесплатно
  • Искривленный вниз / Down Twisted (1987) DVDRip [H.264] [EN]
  • Арчибальд Кронин | Звезды смотрят вниз (2013) [MP3]
  • Вниз по лестнице / Внизу лестницы / Au bas de lechelle (2010) SATRip
  • Вверх-вниз / Horem padem (2004) DVDRip
  • Смотрящий вниз (2002) DVDRip (серии 1-4 из 4)
  • Дем Михайлов | Тернистый путь вниз (2018) [FB2]


    • Комментарии (0):

      Информация

      Информация

        Посетители, находящиеся в группе Гости, не могут оставлять комментарии в данной новости.

        ↓ Меню




        ↓ Опрос

        Вы добавили сайт в закладки?
        Да
        Нет


        Top 10 за месяц (Другое)