.
Авторизация | Регистрация
Хочешь лучшие торренты? Добавь свой email!
Добавить

Торрент скачать бесплатно

» » Старые песни о главном 4 от ALEXnROCK (2001) DVDRip [H.264 / 720p-LQ] торрент скачать бесплатно


    Старые песни о главном 4 от ALEXnROCK (2001) DVDRip [H.264 / 720p-LQ] торрент скачать бесплатно

    Опубликовал: Админ | Дата: 27-03-2018, 05:00 | .torrent скачали: 0

    Старые песни о главном 4 от ALEXnROCK (2001) DVDRip [H.264 / 720p-LQ]Жанр: Pop
    Год выпуска: 2001
    Описание
    Самый клевый мюзикл. Это 4я часть, постскриптум. Сделал легкий ремастеринг видео. Добавил 2 звуковые дороги с CD звуком. Да пребудет с нами качественная музыка! Все лучшее для вас. ALEXnROCK
    Продолжительность: 01: 45: 39
    Качество: DVDRip
    Видео : AVC/H.264, 1280x720(16x9) 25 fps (High@L4) 4000kbps
    Аудио 1 : PCM 2.0, 48KHz, 1536kbps
    Аудио 2 : Ac3 448kbps 5.1 48000HZ
    Аудио 3 : Mp3 48000KHz, 2 ch, 320 Kbps
    Треклист:
    1. Александр Буйнов -Let My People Go
    2. Лайма Вайкуле - Эй, моряк (из к/ф Человек-амфибия)
    3. Мумий Тролль - Twist And Shout
    4. Таня Буланова - Padam Padam
    5. Валерий Меладзе - Свадьба
    6. Кристина Орбакайте, Марина Хлебникова, Игорь Николаев, Дмитрий Маликов - Dancing Queen
    7. Олег Газманов, Лолита - Felicita
    8. Леонид Агутин - Шаланды
    9. Валерий Леонтьев - Une Vie D`Amour (из к/ф Тегеран-43)
    10. Алла Пугачева - Голубка
    11. Максим Леонидов -Blue Suede Shoes
    12. Анжелика Варум - I Wanna Be Loved By You
    13. Владимир Кузьмин - Королева красоты
    14. Людмила Гурченко - Хочешь?
    15. Николай Носков - Полет на дельтаплане
    16. Валерия - Город детства
    17. Иванушки International - Последняя электричка
    18. Николай Фоменко - Белеет мой парус (из к/ф 12 стульев)
    19. Лариса Долина - I Will Always Love You
    20. Наташа Королева, Александр Цекало - Ти ж мене пiдманула
    21. Филипп Киркоров - Livin` La Vida Loca
    22. Елена Лененбаум-Воробей - Звездный час

    Общее
    Уникальный идентификатор : 246681948011037165715741383607035180290 (0xB995370CF467D98188C56428AA0D3502)
    Полное имя : Старые песни о главном 4 ALEXnROCK.mkv
    Формат : Matroska
    Версия формата : Version 4/Version 2
    Размер файла : 4, 65 Гбайт
    Продолжительность : 1 ч. 45 м.
    Общий поток : 6305 Кбит/сек
    Дата кодирования : UTC 2018-03-13 15: 46: 04
    Программа кодирования : mkvmerge v9.8.0 (\'Kuglblids\') 64bit
    Библиотека кодирования : libebml v1.3.4 + libmatroska v1.4.5
    Видео
    Идентификатор : 1
    Формат : AVC
    Формат/Информация : Advanced Video Codec
    Профиль формата : High@L4
    Настройки формата : CABAC/8 Ref Frames
    Параметр CABAC формата : Да
    Параметр RefFrames формата : 8 кадров
    Идентификатор кодека : V_MPEG4/ISO/AVC
    Продолжительность : 1 ч. 45 м.
    Битрейт : 4000 Кбит/сек
    Ширина : 1280 пикселей
    Высота : 720 пикселей
    Соотношение сторон : 16: 9
    Режим частоты кадров : Постоянный
    Частота кадров : 25, 000 кадров/сек
    Цветовое пространство : YUV
    Субдискретизация насыщенности : 4: 2: 0
    Битовая глубина : 8 бит
    Тип развёртки : Прогрессивная
    Бит/(Пиксели*Кадры) : 0.174
    Размер потока : 2, 95 Гбайт (63%)
    Библиотека кодирования : x264 core 146 r2538 121396c
    Настройки программы : cabac=1/ref=8/deblock=1: -1: -1/analyse=0x3: 0x113/me=umh/subme=7/psy=1/psy_rd=1.00: 0.20/mixed_ref=1/me_range=16/chroma_me=1/trellis=2/8x8dct=1/cqm=0/deadzone=21, 11/fast_pskip=0/chroma_qp_offset=-3/threads=12/lookahead_threads=2/sliced_threads=0/nr=0/decimate=0/interlaced=0/bluray_compat=0/constrained_intra=0/bframes=3/b_pyramid=2/b_adapt=2/b_bias=0/direct=3/weightb=1/open_gop=0/weightp=2/keyint=250/keyint_min=25/scenecut=40/intra_refresh=0/rc_lookahead=50/rc=2pass/mbtree=1/bitrate=4000/ratetol=1.0/qcomp=0.60/qpmin=0/qpmax=69/qpstep=4/cplxblur=20.0/qblur=0.5/vbv_maxrate=14000/vbv_bufsize=14000/nal_hrd=none/filler=0/ip_ratio=1.40/aq=1: 1.00
    Default : Да
    Forced : Нет
    Аудио #1
    Идентификатор : 2
    Формат : PCM
    Идентификатор кодека : A_PCM/INT/LIT
    Продолжительность : 1 ч. 45 м.
    Вид битрейта : Постоянный
    Битрейт : 1536 Кбит/сек
    Каналы : 2 канала
    Частота : 48, 0 КГц
    Частота кадров : 32, 000 кадра/сек (1500 SPF)
    Битовая глубина : 16 бит
    Размер потока : 1, 13 Гбайт (24%)
    Default : Да
    Forced : Нет
    Аудио #2
    Идентификатор : 3
    Формат : AC-3
    Формат/Информация : Audio Coding 3
    Параметр Endianness формата : Big
    Идентификатор кодека : A_AC3
    Продолжительность : 1 ч. 45 м.
    Вид битрейта : Постоянный
    Битрейт : 448 Кбит/сек
    Каналы : 6 каналов
    Расположение каналов : Front: L C R, Side: L R, LFE
    Частота : 48, 0 КГц
    Частота кадров : 31, 250 кадров/сек (1536 SPF)
    Битовая глубина : 16 бит
    Метод сжатия : С потерями
    Размер потока : 339 Мбайт (7%)
    ServiceKind/String : Complete Main
    Default : Нет
    Forced : Нет
    Аудио #3
    Идентификатор : 4
    Формат : MPEG Audio
    Версия формата : Version 1
    Профиль формата : Layer 3
    Идентификатор кодека : A_MPEG/L3
    Идентификатор кодека/Подсказка : MP3
    Продолжительность : 1 ч. 45 м.
    Вид битрейта : Постоянный
    Битрейт : 320 Кбит/сек
    Каналы : 2 канала
    Частота : 48, 0 КГц
    Частота кадров : 41, 667 кадра/сек (1152 SPF)
    Метод сжатия : С потерями
    Размер потока : 242 Мбайт (5%)
    Библиотека кодирования : LAME3.99r
    Настройки программы : -m s -V 4 -q 2 -lowpass 20.5
    Default : Нет
    Forced : Нет

    Скриншоты для ознакомления



    Мои раздачи
    Все одноименные релизы в Клубе
    Время раздачи: 24/7 (до появления первых 3-5 скачавших)


    Старые песни о главном 4 от ALEXnROCK (2001) DVDRip [H.264/720p-LQ]
    Рейтинг →
     (голосов: 1, оценка 5/5, голосовать можно 1 раз )

    Другие торренты по теме:

  • VA - Дискотека Казанова Старые Песни По Новому vol. 2 (2015) [MP3|320 кб / с]<Club, Dance, Hands Up> скачать через торрент бесплатно
  • VA - Дискотека Казанова Старые Песни По Новому vol. 3 (2015) [MP3|320 кб / с]<Club, Dance, Eurodance> скачать через торрент бесплатно
  • VA - Дискотека Казанова Старые Песни По Новому vol.5 (2015) [MP3|320 кб / с]<Club, Dance, Hands Up, Eurodance> скачать через торрент бесплатно
  • Старые песни о главном 4 Посткриптум (2000) HDTVRip [H.264 / 720p-LQ] скачать через торрент бесплатно
  • Старые песни о главном 3 (1997) HDTV [H.264 / 1080i] скачать через торрент бесплатно
  • Старые песни о главном 2 (1996) HDTV [H.264 / 1080i] скачать через торрент бесплатно
  • Старые песни о главном 1 (1995) HDTV [H.264 / 1080i] скачать через торрент бесплатно
  • VA - Дискотека Казанова Старые Песни По Новому vol.6 (2016) [MP3|320 кб / с] <Hands Up, Dance, Club, Eurodance>


    • Комментарии (0):

      Информация

      Информация

        Посетители, находящиеся в группе Гости, не могут оставлять комментарии в данной новости.

        ↓ Меню




        ↓ Опрос

        Вы добавили сайт в закладки?
        Да
        Нет


        Top 10 за месяц (Другое)