.
Авторизация | Регистрация
Хочешь лучшие торренты? Добавь свой email!
Добавить

Торрент скачать бесплатно

» » Старые песни о главном 4 от ALEXnROCK (2001) DVDRip торрент скачать бесплатно


    Старые песни о главном 4 от ALEXnROCK (2001) DVDRip торрент скачать бесплатно

    Опубликовал: Админ | Дата: 17-03-2018, 05:00 | .torrent скачали: 1

    Старые песни о главном 4 от ALEXnROCK (2001) DVDRipНазвание: Старые песни о главном 4
    Жанр: Pop
    Год выпуска: 2001
    Продолжительность: 01: 45: 39
    Описание
    Самый клевый мюзикл. Это 4я часть, постскриптум. Звук в песнях заменил на CD. Да пребудет с нами качественная музыка! Все лучшее для вас. ALEXnROCK
    Читается любым бытовым плеером
    Формат: AVI
    Качество: DVDRip
    Видео кодек : XviD
    Видео : 720x408 (16: 9) 2500Kbps 25fps
    Аудио : Mp3 48000KHz, 2 ch, 320 Kbps
    Треклист:
    1. Александр Буйнов -Let My People Go
    2. Лайма Вайкуле - Эй, моряк (из к/ф Человек-амфибия)
    3. Мумий Тролль - Twist And Shout
    4. Таня Буланова - Padam Padam
    5. Валерий Меладзе - Свадьба
    6. Кристина Орбакайте, Марина Хлебникова, Игорь Николаев, Дмитрий Маликов - Dancing Queen
    7. Олег Газманов, Лолита - Felicita
    8. Леонид Агутин - Шаланды
    9. Валерий Леонтьев - Une Vie D`Amour (из к/ф Тегеран-43)
    10. Алла Пугачева - Голубка
    11. Максим Леонидов -Blue Suede Shoes
    12. Анжелика Варум - I Wanna Be Loved By You
    13. Владимир Кузьмин - Королева красоты
    14. Людмила Гурченко - Хочешь?
    15. Николай Носков - Полет на дельтаплане
    16. Валерия - Город детства
    17. Иванушки International - Последняя электричка
    18. Николай Фоменко - Белеет мой парус (из к/ф 12 стульев)
    19. Лариса Долина - I Will Always Love You
    20. Наташа Королева, Александр Цекало - Ти ж мене пiдманула
    21. Филипп Киркоров - Livin` La Vida Loca
    22. Елена Лененбаум-Воробей - Звездный час

    Общее
    Полное имя : Старые песни о главном 4 ALEXnROCK.avi
    Формат : AVI
    Формат/Информация : Audio Video Interleave
    Профиль формата : OpenDML
    Размер файла : 2, 09 Гбайт
    Продолжительность : 1 ч. 45 м.
    Общий поток : 2832 Кбит/сек
    Программа кодирования : VirtualDubMod 1.5.10.2 (build 2540/release)
    Библиотека кодирования : VirtualDubMod build 2540/release
    Видео
    Идентификатор : 0
    Формат : MPEG-4 Visual
    Профиль формата : Advanced Simple@L5
    Настройки формата : BVOP2
    Параметр BVOP формата : 2
    Параметр QPel формата : Нет
    Параметр GMC формата : Без точки перехода
    Параметр матрицы формата : Default (H.263)
    Режим смешивания : Сжатый битовый поток
    Идентификатор кодека : XVID
    Идентификатор кодека/Подсказка : XviD
    Продолжительность : 1 ч. 45 м.
    Битрейт : 2499 Кбит/сек
    Ширина : 720 пикселей
    Высота : 408 пикселей
    Соотношение сторон : 16: 9
    Частота кадров : 25, 000 кадров/сек
    Цветовое пространство : YUV
    Субдискретизация насыщенности : 4: 2: 0
    Битовая глубина : 8 бит
    Тип развёртки : Прогрессивная
    Метод сжатия : С потерями
    Бит/(Пиксели*Кадры) : 0.340
    Размер потока : 1, 84 Гбайт (88%)
    Библиотека кодирования : XviD 1.2.1 (UTC 2008-12-04)
    Аудио
    Идентификатор : 1
    Формат : MPEG Audio
    Версия формата : Version 1
    Профиль формата : Layer 3
    Идентификатор кодека : 55
    Идентификатор кодека/Подсказка : MP3
    Продолжительность : 1 ч. 45 м.
    Вид битрейта : Постоянный
    Битрейт : 320 Кбит/сек
    Каналы : 2 канала
    Частота : 48, 0 КГц
    Метод сжатия : С потерями
    Размер потока : 242 Мбайт (11%)
    Выравнивание : Соединение по промежуткам
    Продолжительность промежутка : 40 мс. (1, 00 видеокадр)
    Время предзагрузки промежутка : 504 мс.
    Библиотека кодирования : LAME3.99r
    Настройки программы : -m s -V 4 -q 2 -lowpass 20.5

    Скриншоты для ознакомления



    Мои раздачи
    Все одноименные релизы в Клубе
    Время раздачи: 24/7 (до появления первых 3-5 скачавших)


    Старые песни о главном 4 от ALEXnROCK (2001) DVDRip
    Рейтинг →
     (голосов: 1, оценка 4/5, голосовать можно 1 раз )

    Другие торренты по теме:

  • VA - Дискотека Казанова Старые Песни По Новому vol. 2 (2015) [MP3|320 кб / с]<Club, Dance, Hands Up> скачать через торрент бесплатно
  • VA - Дискотека Казанова Старые Песни По Новому vol. 3 (2015) [MP3|320 кб / с]<Club, Dance, Eurodance> скачать через торрент бесплатно
  • VA - Дискотека Казанова Старые Песни По Новому vol.5 (2015) [MP3|320 кб / с]<Club, Dance, Hands Up, Eurodance> скачать через торрент бесплатно
  • Старые песни о главном 4 Посткриптум (2000) HDTVRip [H.264 / 720p-LQ] скачать через торрент бесплатно
  • Старые песни о главном 3 (1997) HDTV [H.264 / 1080i] скачать через торрент бесплатно
  • Старые песни о главном 2 (1996) HDTV [H.264 / 1080i] скачать через торрент бесплатно
  • Старые песни о главном 1 (1995) HDTV [H.264 / 1080i] скачать через торрент бесплатно
  • VA - Дискотека Казанова Старые Песни По Новому vol.6 (2016) [MP3|320 кб / с] <Hands Up, Dance, Club, Eurodance>


    • Комментарии (0):

      Информация

      Информация

        Посетители, находящиеся в группе Гости, не могут оставлять комментарии в данной новости.

        ↓ Меню




        ↓ Опрос

        Вы добавили сайт в закладки?
        Да
        Нет


        Top 10 за месяц (Другое)