.
Авторизация | Регистрация
Хочешь лучшие торренты? Добавь свой email!
Добавить

Торрент скачать бесплатно

  • support: webmaster@btracker.org
» » Старые песни о главном 3 от ALEXnROCK (1998) DVDRip торрент скачать бесплатно


    Старые песни о главном 3 от ALEXnROCK (1998) DVDRip торрент скачать бесплатно

    Опубликовал: Админ | Дата: 15-03-2018, 05:00 | .torrent скачали: 0

    Старые песни о главном 3 от ALEXnROCK (1998) DVDRipНазвание: Старые песни о главном 3
    Жанр: Pop
    Год выпуска: 1998
    Продолжительность: 02: 24: 50
    Описание
    Самый клевый мюзикл. Это 3я часть. Видео прошло 9ти часовую реставрационную обработку. Исправил ужасную работу звукорежисера. Звук в песнях вставил из CD. Да пребудет с нами качественная музыка! Все лучшее для вас. ALEXnROCK
    Читается любым бытовым плеером
    Формат: AVI
    Качество: DVDRip
    Видео кодек : XviD
    Видео : 720x408 (16: 9) 2500Kbps 25fps
    Аудио : Mp3 48000KHz, 2 ch, 320 Kbps
    Треклист:
    1. Иванушки Интернэшнл — Алёшкина любовь
    2. Валерий Леонтьев — Hafanana
    3. Леонид Агутин — Где-то далеко...
    4. Лариса Долина — Песня из к/ф 31 июня
    5. Лиз Митчелл, Boney M, А.Буйнов — Rasputin
    6. Несчастный Случай — Песня из к/ф Генералы песчаных карьеров
    7. Владимир Пресняков - Для меня нет тебя прекрасней
    8. Кабаре-дуэт Академия — Moskau
    9. Татьяна Буланова - Не отрекаются любя
    10. Филипп Киркоров - Уходило лето
    11. Алла Пугачёва - Мне нравится...
    12. Анжелика Варум, Дмитрий Маликов — Листья жёлтые
    13. Николай Фоменко, Сергей Мазаев, Виктор Рыбин — Трус не играет в хоккей
    14. Марыля Родович, Александр Малинин — Разноцветные ярмарки
    15. Кристина Орбакайте — Эхо любви
    16. Песня из к/ф Кардебалет
    17. Максим Леонидов — Из вагантов (Песенка студента)
    18. Алёна Апина — Стою на полустаночке
    19. Алла Пугачёва - На Тихорецкую
    20. На-На — Увезу тебя я в тундру
    21. Лайма Вайкуле — Mummy Blue
    22. Лев Лещенко, Алёна Свиридова — Манчестер-Ливерпуль
    23. Крис Норман, Наташа Королёва — Stumblin\'in
    24. Николай Расторгуев — Песня из к/ф Земля Санникова
    25. Валерия — Последняя поэма (из к/ф Вам и не снилось)
    26. Валерий Меладзе — Звёздочка моя
    27. Алла Пугачёва - По улице моей...
    28. Гарик Сукачёв — Кони привередливые
    29. Глория Гейнор, Лариса Долина — I Will Survive
    30. Коллективное исполнение — Надежда

    Общее
    Полное имя : Старые песни о главном 3 ALEXnROCK.avi
    Формат : AVI
    Формат/Информация : Audio Video Interleave
    Профиль формата : OpenDML
    Размер файла : 2, 86 Гбайт
    Продолжительность : 2 ч. 24 м.
    Общий поток : 2831 Кбит/сек
    Программа кодирования : VirtualDubMod 1.5.10.2 (build 2540/release)
    Библиотека кодирования : VirtualDubMod build 2540/release
    Видео
    Идентификатор : 0
    Формат : MPEG-4 Visual
    Профиль формата : Advanced Simple@L5
    Настройки формата : BVOP2
    Параметр BVOP формата : 2
    Параметр QPel формата : Нет
    Параметр GMC формата : Без точки перехода
    Параметр матрицы формата : Default (H.263)
    Режим смешивания : Сжатый битовый поток
    Идентификатор кодека : XVID
    Идентификатор кодека/Подсказка : XviD
    Продолжительность : 2 ч. 24 м.
    Битрейт : 2500 Кбит/сек
    Ширина : 720 пикселей
    Высота : 408 пикселей
    Соотношение сторон : 16: 9
    Частота кадров : 25, 000 кадров/сек
    Цветовое пространство : YUV
    Субдискретизация насыщенности : 4: 2: 0
    Битовая глубина : 8 бит
    Тип развёртки : Прогрессивная
    Метод сжатия : С потерями
    Бит/(Пиксели*Кадры) : 0.340
    Размер потока : 2, 53 Гбайт (88%)
    Библиотека кодирования : XviD 1.2.1 (UTC 2008-12-04)
    Аудио
    Идентификатор : 1
    Формат : MPEG Audio
    Версия формата : Version 1
    Профиль формата : Layer 3
    Идентификатор кодека : 55
    Идентификатор кодека/Подсказка : MP3
    Продолжительность : 2 ч. 24 м.
    Вид битрейта : Постоянный
    Битрейт : 320 Кбит/сек
    Каналы : 2 канала
    Частота : 48, 0 КГц
    Метод сжатия : С потерями
    Размер потока : 332 Мбайт (11%)
    Выравнивание : Соединение по промежуткам
    Продолжительность промежутка : 40 мс. (1, 00 видеокадр)
    Время предзагрузки промежутка : 504 мс.
    Библиотека кодирования : LAME3.99r
    Настройки программы : -m s -V 4 -q 2 -lowpass 20.5

    Скриншоты для ознакомления



    Мои раздачи
    Все одноименные релизы в Клубе
    Время раздачи: 24/7 (до появления первых 3-5 скачавших)


    Старые песни о главном 3 от ALEXnROCK (1998) DVDRip
    Рейтинг →
     (голосов: 1, оценка 3/5, голосовать можно 1 раз )

    Другие торренты по теме:

  • VA - Дискотека Казанова Старые Песни По Новому vol. 2 (2015) [MP3|320 кб / с]<Club, Dance, Hands Up> скачать через торрент бесплатно
  • VA - Дискотека Казанова Старые Песни По Новому vol. 3 (2015) [MP3|320 кб / с]<Club, Dance, Eurodance> скачать через торрент бесплатно
  • VA - Дискотека Казанова Старые Песни По Новому vol.5 (2015) [MP3|320 кб / с]<Club, Dance, Hands Up, Eurodance> скачать через торрент бесплатно
  • Старые песни о главном 4 Посткриптум (2000) HDTVRip [H.264 / 720p-LQ] скачать через торрент бесплатно
  • Старые песни о главном 3 (1997) HDTV [H.264 / 1080i] скачать через торрент бесплатно
  • Старые песни о главном 2 (1996) HDTV [H.264 / 1080i] скачать через торрент бесплатно
  • Старые песни о главном 1 (1995) HDTV [H.264 / 1080i] скачать через торрент бесплатно
  • VA - Дискотека Казанова Старые Песни По Новому vol.6 (2016) [MP3|320 кб / с] <Hands Up, Dance, Club, Eurodance>


    • Комментарии (0):

      Информация

      Информация

        Посетители, находящиеся в группе Гости, не могут оставлять комментарии в данной новости.

        ↓ Меню




        ↓ Опрос

        Вы добавили сайт в закладки?
        Да
        Нет


        Top 10 за месяц (Другое)