.
Авторизация | Регистрация
Хочешь лучшие торренты? Добавь свой email!
Добавить

Торрент скачать бесплатно

» » Старые песни о главном 2 от ALEXnROCK (1997) DVDRip [hand-made] торрент скачать бесплатно


    Старые песни о главном 2 от ALEXnROCK (1997) DVDRip [hand-made] торрент скачать бесплатно

    Опубликовал: Админ | Дата: 4-03-2018, 05:00 | .torrent скачали: 3

    Старые песни о главном 2 от ALEXnROCK (1997) DVDRip [hand-made]Название: Старые песни о главном 2
    Жанр: Pop
    Год выпуска: 1997
    Продолжительность: 01: 44: 13
    Описание
    Самый клевый мюзикл. Это 2я часть. Видео прошло 39ти часовую реставрационную обработку. Звук заменил на CD. Да пребудет с нами качественная музыка! Все лучшее для вас. ALEXnROCK
    Читается любым бытовым плеером
    Формат: AVI
    Качество: DVDRip
    Видео кодек : XviD
    Видео : 720x408 (16: 9) 2500Kbps 25fps
    Аудио : Mp3 48000KHz, 2 ch, 320 Kbps
    Треклист:
    01. Валерий Сюткин - Как провожают пароходы (А.Островский - К.Ваншенкин)
    02. Лариса Долина - Стоят девчонки (А.Колкер - К.Рыжев)
    03. Ирина Аллегрова - Белый свет (О.Фельцман - М.Танич, И.Шаферан)
    04. Валерий Меладзе - Ямайка (русский текст Л.Дербенева)
    05. Андрей Макаревич - Люблю я макароны (В.Вертмюллер, русский текст Ю.Кима)
    06. Владимир Пресняков - Течет река Волга (М.Фрадкин - Л.Ошанин)
    07. Александр Малинин - Лада (В.Шаинский - М.Пляцковский)
    08. Таня Буланова - Нежность (А.Пахмутова - Н.Добронравов, А.Гребенников)
    09. Леонид Агутин - Каникулы любви (Я.Мигаява, русский текст Л.Дербенева)
    10. Дмитрий Маликов, Наталья Ветлицкая - Какая странная судьба (из к/ф \'Мужчина и женщина\', Ф.Лей, текст М.Подберезского)
    11. Валерия - Маленький принц (из к/ф \'Пассажир с экватора\', М.Таривердиев - Н.Добронравов)
    12. Анжелика Варум - Наш сосед (Б.Потемкин)
    13. Алла Пугачева - Осенние листья
    14. Кристина Орбакайте - Я тебя подожду (А.Островский - Л.Ошанин)
    15. Филипп Киркоров - Ди Лайла (Л.Рид, Б.Мейзон, русский текст О.Гаджикасимова
    16. Вокал-бэнд - Журавлиная песня (из к/ф \'Доживем до понедельника\', К.Молчанов - Г.Полонский)
    17. Николай Фоменко, Виктор Рыбин, Сергей Мазаев - На безымянной высоте (из к/ф \'Тишина\', В.Баснер - М.Матусовский)
    18. Олег Газманов - Марш высотников (из к/ф \'Высота\', Р.Щедрин - В.Котов)
    19. Лайма Вайкуле - Лунный камень (А.Островский - И.Кажешева)
    20. Наташа Королева - Вулкан страстей (из к/ф \'Бриллиантовая рука\', А.Зацепин - Л.Дербенев)
    21. Николай Расторгуев - Песня о друге (из к/ф \'Путь к причалу\', А.Петров - Г.Поженян)
    22. Жанна Агузарова - Снег идет (из к/ф \'Карьера Димы Горина\', А.Эшпай - Е.Евтушенко)
    23. Игорь Николаев - Люди встречаются (П.Слободкин - Н.Олев)
    24. Алена Апина, Наташа Королева, Таня Буланова - Ромашки спрятались (Е.Птичкин - И.Шаферан)
    25. Алена Свиридова - Песенка о медведях (из к/ф \'Кавказская пленница\', А.Зацепин - Л.Дербенев)
    26. Людмила Гурченко - Московские окна (Т.Хренников - М.Матусовский)

    Общее
    Полное имя : Старые песни о главном 2 avi ALEXnROCKСтарые песни о главном 2 ALEXnROCK.avi
    Формат : AVI
    Формат/Информация : Audio Video Interleave
    Профиль формата : OpenDML
    Размер файла : 2, 06 Гбайт
    Продолжительность : 1 ч. 44 м.
    Общий поток : 2832 Кбит/сек
    Программа кодирования : VirtualDubMod 1.5.10.2 (build 2540/release)
    Библиотека кодирования : VirtualDubMod build 2540/release
    Видео
    Идентификатор : 0
    Формат : MPEG-4 Visual
    Профиль формата : Advanced Simple@L5
    Настройки формата : BVOP2
    Параметр BVOP формата : 2
    Параметр QPel формата : Нет
    Параметр GMC формата : Без точки перехода
    Параметр матрицы формата : Default (H.263)
    Режим смешивания : Сжатый битовый поток
    Идентификатор кодека : XVID
    Идентификатор кодека/Подсказка : XviD
    Продолжительность : 1 ч. 44 м.
    Битрейт : 2500 Кбит/сек
    Ширина : 720 пикселей
    Высота : 408 пикселей
    Соотношение сторон : 16: 9
    Частота кадров : 25, 000 кадров/сек
    Цветовое пространство : YUV
    Субдискретизация насыщенности : 4: 2: 0
    Битовая глубина : 8 бит
    Тип развёртки : Прогрессивная
    Метод сжатия : С потерями
    Бит/(Пиксели*Кадры) : 0.340
    Размер потока : 1, 82 Гбайт (88%)
    Библиотека кодирования : XviD 1.2.1 (UTC 2008-12-04)
    Аудио
    Идентификатор : 1
    Формат : MPEG Audio
    Версия формата : Version 1
    Профиль формата : Layer 3
    Идентификатор кодека : 55
    Идентификатор кодека/Подсказка : MP3
    Продолжительность : 1 ч. 44 м.
    Вид битрейта : Постоянный
    Битрейт : 320 Кбит/сек
    Каналы : 2 канала
    Частота : 48, 0 КГц
    Метод сжатия : С потерями
    Размер потока : 239 Мбайт (11%)
    Выравнивание : Соединение по промежуткам
    Продолжительность промежутка : 40 мс. (1, 00 видеокадр)
    Время предзагрузки промежутка : 504 мс.
    Библиотека кодирования : LAME3.99r
    Настройки программы : -m s -V 4 -q 2 -lowpass 20.5

    Скриншоты для ознакомления



    Мои раздачи
    Все одноименные релизы в Клубе
    Время раздачи: 24/7 (до появления первых 3-5 скачавших)


    Старые песни о главном 2 от ALEXnROCK (1997) DVDRip [hand-made]
    Рейтинг →
     (голосов: 1, оценка 4/5, голосовать можно 1 раз )

    Другие торренты по теме:

  • VA - Дискотека Казанова Старые Песни По Новому vol. 2 (2015) [MP3|320 кб / с]<Club, Dance, Hands Up> скачать через торрент бесплатно
  • VA - Дискотека Казанова Старые Песни По Новому vol. 3 (2015) [MP3|320 кб / с]<Club, Dance, Eurodance> скачать через торрент бесплатно
  • VA - Дискотека Казанова Старые Песни По Новому vol.5 (2015) [MP3|320 кб / с]<Club, Dance, Hands Up, Eurodance> скачать через торрент бесплатно
  • Старые песни о главном 4 Посткриптум (2000) HDTVRip [H.264 / 720p-LQ] скачать через торрент бесплатно
  • Старые песни о главном 3 (1997) HDTV [H.264 / 1080i] скачать через торрент бесплатно
  • Старые песни о главном 2 (1996) HDTV [H.264 / 1080i] скачать через торрент бесплатно
  • Старые песни о главном 1 (1995) HDTV [H.264 / 1080i] скачать через торрент бесплатно
  • VA - Дискотека Казанова Старые Песни По Новому vol.6 (2016) [MP3|320 кб / с] <Hands Up, Dance, Club, Eurodance>


    • Комментарии (0):

      Информация

      Информация

        Посетители, находящиеся в группе Гости, не могут оставлять комментарии в данной новости.

        ↓ Меню




        ↓ Опрос

        Вы добавили сайт в закладки?
        Да
        Нет


        Top 10 за месяц (Другое)