.
Авторизация | Регистрация
Хочешь лучшие торренты? Добавь свой email!
Добавить

Торрент скачать бесплатно

  • support: webmaster@btracker.org
» » Старые песни о главном 2 от ALEXnROCK (1997) DVDRip [H.264 / 720p-LQ] торрент скачать бесплатно


    Старые песни о главном 2 от ALEXnROCK (1997) DVDRip [H.264 / 720p-LQ] торрент скачать бесплатно

    Опубликовал: Админ | Дата: 28-02-2018, 05:00 | .torrent скачали: 4

    Старые песни о главном 2 от ALEXnROCK (1997) DVDRip [H.264 / 720p-LQ]Жанр: Pop
    Год выпуска: 1997

    Описание

    Самый клевый мюзикл. Это 2я часть. Видео прошло 39ти часовую реставрационную обработку. Добавил 2 звуковые дороги с CD звуком. Да пребудет с нами качественная музыка! Все лучшее для вас. ALEXnROCK

    Релиз от: ALEXnROCK (Ремастеринг видео, звук CD)
    Продолжительность: 01: 44: 15
    Качество: DVDRip
    Видео : H264, 1280x720(16x9) 25 fps (High@L4) 4000kbps
    Аудио 1 : PCM 2.0, 48KHz, 1536kbps
    Аудио 2 : Ac3 448kbps 5.1 48000HZ
    Аудио 3 : Mp3 48000KHz, 2 ch, 320 Kbps
    Треклист:
    01. Валерий Сюткин - Как провожают пароходы (А.Островский - К.Ваншенкин)
    02. Лариса Долина - Стоят девчонки (А.Колкер - К.Рыжев)
    03. Ирина Аллегрова - Белый свет (О.Фельцман - М.Танич, И.Шаферан)
    04. Валерий Меладзе - Ямайка (русский текст Л.Дербенева)
    05. Андрей Макаревич - Люблю я макароны (В.Вертмюллер, русский текст Ю.Кима)
    06. Владимир Пресняков - Течет река Волга (М.Фрадкин - Л.Ошанин)
    07. Александр Малинин - Лада (В.Шаинский - М.Пляцковский)
    08. Таня Буланова - Нежность (А.Пахмутова - Н.Добронравов, А.Гребенников)
    09. Леонид Агутин - Каникулы любви (Я.Мигаява, русский текст Л.Дербенева)
    10. Дмитрий Маликов, Наталья Ветлицкая - Какая странная судьба (из к/ф \'Мужчина и женщина\', Ф.Лей, текст М.Подберезского)
    11. Валерия - Маленький принц (из к/ф \'Пассажир с экватора\', М.Таривердиев - Н.Добронравов)
    12. Анжелика Варум - Наш сосед (Б.Потемкин)
    13. Алла Пугачева - Осенние листья
    14. Кристина Орбакайте - Я тебя подожду (А.Островский - Л.Ошанин)
    15. Филипп Киркоров - Ди Лайла (Л.Рид, Б.Мейзон, русский текст О.Гаджикасимова)
    16. Вокал-бэнд - Журавлиная песня (из к/ф \'Доживем до понедельника\', К.Молчанов - Г.Полонский)
    17. Николай Фоменко, Виктор Рыбин, Сергей Мазаев - На безымянной высоте (из к/ф \'Тишина\', В.Баснер - М.Матусовский)
    18. Олег Газманов - Марш высотников (из к/ф \'Высота\', Р.Щедрин - В.Котов)
    19. Лайма Вайкуле - Лунный камень (А.Островский - И.Кажешева)
    20. Наташа Королева - Вулкан страстей (из к/ф \'Бриллиантовая рука\', А.Зацепин - Л.Дербенев)
    21. Николай Расторгуев - Песня о друге (из к/ф \'Путь к причалу\', А.Петров - Г.Поженян)
    22. Жанна Агузарова - Снег идет (из к/ф \'Карьера Димы Горина\', А.Эшпай - Е.Евтушенко)
    23. Игорь Николаев - Люди встречаются (П.Слободкин - Н.Олев)
    24. Алена Апина, Наташа Королева, Таня Буланова - Ромашки спрятались (Е.Птичкин - И.Шаферан)
    25. Алена Свиридова - Песенка о медведях (из к/ф \'Кавказская пленница\', А.Зацепин - Л.Дербенев)
    26. Людмила Гурченко - Московские окна (Т.Хренников - М.Матусовский)

    Общее
    Уникальный идентификатор : 226464564430864380350554471624898663041 (0xAA5F7D14C235005783483AF8B0565281)
    Полное имя : Старые песни о главном 2 mkv ALEXnROCKСтарые песни о главном 2 ALEXnROCK.mkv
    Формат : Matroska
    Версия формата : Version 4/Version 2
    Размер файла : 4, 54 Гбайт
    Продолжительность : 1 ч. 44 м.
    Общий поток : 6243 Кбит/сек
    Дата кодирования : UTC 2018-02-26 12: 24: 52
    Программа кодирования : mkvmerge v9.8.0 (\'Kuglblids\') 64bit
    Библиотека кодирования : libebml v1.3.4 + libmatroska v1.4.5
    Видео
    Идентификатор : 1
    Формат : AVC
    Формат/Информация : Advanced Video Codec
    Профиль формата : High@L4
    Настройки формата : CABAC/8 Ref Frames
    Параметр CABAC формата : Да
    Параметр RefFrames формата : 8 кадров
    Идентификатор кодека : V_MPEG4/ISO/AVC
    Продолжительность : 1 ч. 44 м.
    Битрейт : 4000 Кбит/сек
    Ширина : 1280 пикселей
    Высота : 720 пикселей
    Соотношение сторон : 16: 9
    Режим частоты кадров : Постоянный
    Частота кадров : 25, 000 кадров/сек
    Цветовое пространство : YUV
    Субдискретизация насыщенности : 4: 2: 0
    Битовая глубина : 8 бит
    Тип развёртки : Прогрессивная
    Бит/(Пиксели*Кадры) : 0.174
    Размер потока : 2, 91 Гбайт (64%)
    Библиотека кодирования : x264 core 146 r2538 121396c
    Настройки программы : cabac=1/ref=8/deblock=1: -1: -1/analyse=0x3: 0x113/me=umh/subme=7/psy=1/psy_rd=1.00: 0.20/mixed_ref=1/me_range=16/chroma_me=1/trellis=2/8x8dct=1/cqm=0/deadzone=21, 11/fast_pskip=0/chroma_qp_offset=-3/threads=12/lookahead_threads=2/sliced_threads=0/nr=0/decimate=0/interlaced=0/bluray_compat=0/constrained_intra=0/bframes=3/b_pyramid=2/b_adapt=2/b_bias=0/direct=3/weightb=1/open_gop=0/weightp=2/keyint=250/keyint_min=25/scenecut=40/intra_refresh=0/rc_lookahead=50/rc=2pass/mbtree=1/bitrate=4000/ratetol=1.0/qcomp=0.60/qpmin=0/qpmax=69/qpstep=4/cplxblur=20.0/qblur=0.5/vbv_maxrate=14000/vbv_bufsize=14000/nal_hrd=none/filler=0/ip_ratio=1.40/aq=1: 1.00
    Default : Да
    Forced : Нет
    Аудио #1
    Идентификатор : 2
    Формат : PCM
    Идентификатор кодека : A_PCM/INT/LIT
    Продолжительность : 1 ч. 44 м.
    Вид битрейта : Постоянный
    Битрейт : 1536 Кбит/сек
    Каналы : 2 канала
    Частота : 48, 0 КГц
    Частота кадров : 32, 000 кадра/сек (1500 SPF)
    Битовая глубина : 16 бит
    Размер потока : 1, 12 Гбайт (25%)
    Default : Да
    Forced : Нет
    Аудио #2
    Идентификатор : 3
    Формат : AC-3
    Формат/Информация : Audio Coding 3
    Параметр Endianness формата : Big
    Идентификатор кодека : A_AC3
    Продолжительность : 1 ч. 44 м.
    Вид битрейта : Постоянный
    Битрейт : 384 Кбит/сек
    Каналы : 6 каналов
    Расположение каналов : Front: L C R, Side: L R, LFE
    Частота : 48, 0 КГц
    Частота кадров : 31, 250 кадров/сек (1536 SPF)
    Битовая глубина : 16 бит
    Метод сжатия : С потерями
    Размер потока : 286 Мбайт (6%)
    ServiceKind/String : Complete Main
    Default : Нет
    Forced : Нет
    Аудио #3
    Идентификатор : 4
    Формат : MPEG Audio
    Версия формата : Version 1
    Профиль формата : Layer 3
    Идентификатор кодека : A_MPEG/L3
    Идентификатор кодека/Подсказка : MP3
    Продолжительность : 1 ч. 44 м.
    Вид битрейта : Постоянный
    Битрейт : 320 Кбит/сек
    Каналы : 2 канала
    Частота : 48, 0 КГц
    Частота кадров : 41, 667 кадра/сек (1152 SPF)
    Метод сжатия : С потерями
    Размер потока : 239 Мбайт (5%)
    Библиотека кодирования : LAME3.99r
    Настройки программы : -m s -V 4 -q 2 -lowpass 20.5
    Default : Нет
    Forced : Нет

    Скриншоты для ознакомления



    Мои раздачи
    Все одноименные релизы в Клубе
    Время раздачи: 24/7 (до появления первых 3-5 скачавших)


    Старые песни о главном 2 от ALEXnROCK (1997) DVDRip [H.264/720p-LQ]
    Рейтинг →
     (голосов: 1, оценка 4/5, голосовать можно 1 раз )

    Другие торренты по теме:

  • VA - Дискотека Казанова Старые Песни По Новому vol. 2 (2015) [MP3|320 кб / с]<Club, Dance, Hands Up> скачать через торрент бесплатно
  • VA - Дискотека Казанова Старые Песни По Новому vol. 3 (2015) [MP3|320 кб / с]<Club, Dance, Eurodance> скачать через торрент бесплатно
  • VA - Дискотека Казанова Старые Песни По Новому vol.5 (2015) [MP3|320 кб / с]<Club, Dance, Hands Up, Eurodance> скачать через торрент бесплатно
  • Старые песни о главном 4 Посткриптум (2000) HDTVRip [H.264 / 720p-LQ] скачать через торрент бесплатно
  • Старые песни о главном 3 (1997) HDTV [H.264 / 1080i] скачать через торрент бесплатно
  • Старые песни о главном 2 (1996) HDTV [H.264 / 1080i] скачать через торрент бесплатно
  • Старые песни о главном 1 (1995) HDTV [H.264 / 1080i] скачать через торрент бесплатно
  • VA - Дискотека Казанова Старые Песни По Новому vol.6 (2016) [MP3|320 кб / с] <Hands Up, Dance, Club, Eurodance>


    • Комментарии (0):

      Информация

      Информация

        Посетители, находящиеся в группе Гости, не могут оставлять комментарии в данной новости.

        ↓ Меню




        ↓ Опрос

        Вы добавили сайт в закладки?
        Да
        Нет


        Top 10 за месяц (Другое)