.
Авторизация | Регистрация
Хочешь лучшие торренты? Добавь свой email!
Добавить

Торрент скачать бесплатно

» » Мумия / The Mummy (1999) HDRip [H.264] [Hand Made Extended Cut] торрент скачать бесплатно


    Мумия / The Mummy (1999) HDRip [H.264] [Hand Made Extended Cut] торрент скачать бесплатно

    Опубликовал: Админ | Дата: 27-02-2018, 05:00 | .torrent скачали: 0

    Мумия / The Mummy (1999) HDRip [H.264] [Hand Made Extended Cut]Производство: США/Alphaville Films, Universal Pictures
    Жанр: Боевик, Приключения, Фэнтези
    Режиссер: Стивен Соммерс

    Актеры
    Брендан Фрейзер, Рэйчел Вайс, Джон Ханна, Арнольд Вослу, Кевин Дж. О’Коннор, Джонатан Хайд, Одед Фер, Эрик Авари, Стивен Данэм, Кори Джонсон

    Описание

    На бескрайних просторах египетской пустыни компания сорвиголов разных национальностей рыщет в поисках несметных сокровищ фараона, над которыми тяготеет жуткое древнее проклятие. Рядом с кладом покоится мумия коварного жреца, жестоко казненного за ужасное убийство могущественного правителя Египта. Золотоискатели потревожили многовековой покой гробницы, и мумия встает из могилы, чтобы погрузить мир в царство кошмара.

    Возраст: 12+ (зрителям, достигшим 12 лет)
    Рейтинг MPAA: PG-13 (детям до 13 лет просмотр нежелателен)
    Релиз от: MAG3131
    Продолжительность: 02: 06: 49
    Качество видео: HDRip
    Перевод: Многоголосый с вставками любительского двухголосого \'\'Dars Group\'\' x4
    Субтитры: Отсутствуют
    Видео: AVC/H.264, 720x304, ~1541 kbps, 29, 970 fps
    Аудио #01: AC3, 2 ch, 192 kbps (Русский - Многоголосый \'\'BD CEE\'\' с вставками любительского двухголосого \'\'Dars Group\'\')
    Аудио #02: AC3, 2 ch, 192 kbps (Русский - Многоголосый \'\'Universal Pictures\'\' с вставками любительского двухголосого \'\'Dars Group\'\')
    Аудио #03: AC3, 2 ch, 192 kbps (Русский - Многоголосый \'\'Первый канал/Рен-ТВ/СТС\'\' с вставками любительского двухголосого \'\'Dars Group\'\')
    Аудио #04: AC3, 2 ch, 192 kbps (Русский - Многоголосый \'\'Премьер-Видеофильм\'\' с вставками любительского двухголосого \'\'Dars Group\'\')
    Данная версия фильма на Blu-Ray не выходила как расширенная версия. Поэтому это Неофициальная (фанатная) версия. Добавленные сцены отличаются по качеству видео от самого фильма.

    Общее
    Уникальный идентификатор : 219103365222754350227139800266751455433 (0xA4D5C5F06CEBAF330408F4D685A5B0C9)
    Полное имя : Мумия - 01 (Расширенная версия) (The Mummy - 01) (Extended Cut).mkv
    Формат : Matroska
    Версия формата : Version 2
    Размер файла : 2, 05 Гбайт
    Продолжительность : 2 ч. 6 м.
    Общий поток : 2311 Кбит/сек
    Дата кодирования : UTC 2018-02-24 18: 34: 14
    Программа кодирования : mkvmerge v21.0.0 (\'Tardigrades Will Inherit The Earth\') 64-bit
    Библиотека кодирования : libebml v1.3.5 + libmatroska v1.4.8
    Видео
    Идентификатор : 1
    Формат : AVC
    Формат/Информация : Advanced Video Codec
    Профиль формата : High@L4.1
    Настройки формата : CABAC/12 Ref Frames
    Параметр CABAC формата : Да
    Параметр RefFrames формата : 12 кадров
    Идентификатор кодека : V_MPEG4/ISO/AVC
    Продолжительность : 2 ч. 6 м.
    Битрейт : 1541 Кбит/сек
    Ширина : 720 пикселей
    Высота : 304 пикселя
    Соотношение сторон : 2, 35: 1
    Режим частоты кадров : Постоянный
    Частота кадров : 29, 970 (29970/1000) кадров/сек
    Цветовое пространство : YUV
    Субдискретизация насыщенности : 4: 2: 0
    Битовая глубина : 8 бит
    Тип развёртки : Прогрессивная
    Бит/(Пиксели*Кадры) : 0.235
    Размер потока : 1, 33 Гбайт (65%)
    Заголовок : Мумия - 01 (Расширенная версия) (The Mummy - 01) (Extended Cut)
    Библиотека кодирования : x264 core 155 r2901 7d0ff22
    Настройки программы : cabac=1/ref=12/deblock=1: -1: -1/analyse=0x3: 0x133/me=umh/subme=11/psy=1/psy_rd=1.00: 0.15/mixed_ref=1/me_range=64/chroma_me=1/trellis=2/8x8dct=1/cqm=0/deadzone=21, 11/fast_pskip=0/chroma_qp_offset=-3/threads=6/lookahead_threads=1/sliced_threads=0/nr=0/decimate=0/interlaced=0/bluray_compat=0/constrained_intra=0/bframes=16/b_pyramid=2/b_adapt=2/b_bias=0/direct=3/weightb=1/open_gop=0/weightp=2/keyint=300/keyint_min=29/scenecut=40/intra_refresh=0/rc_lookahead=60/rc=2pass/mbtree=0/bitrate=1541/ratetol=1.0/qcomp=0.60/qpmin=0/qpmax=69/qpstep=4/cplxblur=20.0/qblur=0.5/vbv_maxrate=50000/vbv_bufsize=62500/nal_hrd=none/filler=0/ip_ratio=1.40/pb_ratio=1.30/aq=1: 1.00
    Язык : English
    Default : Да
    Forced : Нет
    Аудио #1
    Идентификатор : 2
    Формат : AC-3
    Формат/Информация : Audio Coding 3
    Идентификатор кодека : A_AC3
    Продолжительность : 2 ч. 6 м.
    Вид битрейта : Постоянный
    Битрейт : 192 Кбит/сек
    Каналы : 2 канала
    Расположение каналов : Front: L R
    Частота : 48, 0 КГц
    Частота кадров : 31, 250 кадров/сек (1536 SPF)
    Битовая глубина : 16 бит
    Метод сжатия : С потерями
    Размер потока : 174 Мбайт (8%)
    Заголовок : Многоголосый \'\'Blu-ray CEE\'\' с вставками любительского двухголосого \'\'Dars Group\'\' (AC-3, Постоянный, 192 Кбит/сек, 2 канала, 48, 0 КГц, 16 бит)
    Язык : Russian
    ServiceKind/String : Complete Main
    Default : Да
    Forced : Нет
    Аудио #2
    Идентификатор : 3
    Формат : AC-3
    Формат/Информация : Audio Coding 3
    Идентификатор кодека : A_AC3
    Продолжительность : 2 ч. 6 м.
    Вид битрейта : Постоянный
    Битрейт : 192 Кбит/сек
    Каналы : 2 канала
    Расположение каналов : Front: L R
    Частота : 48, 0 КГц
    Частота кадров : 31, 250 кадров/сек (1536 SPF)
    Битовая глубина : 16 бит
    Метод сжатия : С потерями
    Размер потока : 174 Мбайт (8%)
    Заголовок : Многоголосый \'\'Universal Pictures\'\' с вставками любительского двухголосого \'\'Dars Group\'\' (AC-3, Постоянный, 192 Кбит/сек, 2 канала, 48, 0 КГц, 16 бит)
    Язык : Russian
    ServiceKind/String : Complete Main
    Default : Нет
    Forced : Нет
    Аудио #3
    Идентификатор : 4
    Формат : AC-3
    Формат/Информация : Audio Coding 3
    Идентификатор кодека : A_AC3
    Продолжительность : 2 ч. 6 м.
    Вид битрейта : Постоянный
    Битрейт : 192 Кбит/сек
    Каналы : 2 канала
    Расположение каналов : Front: L R
    Частота : 48, 0 КГц
    Частота кадров : 31, 250 кадров/сек (1536 SPF)
    Битовая глубина : 16 бит
    Метод сжатия : С потерями
    Размер потока : 174 Мбайт (8%)
    Заголовок : Многоголосый \'\'Первый канал/Рен-ТВ/СТС\'\' с вставками любительского двухголосого \'\'Dars Group\'\' (AC-3, Постоянный, 192 Кбит/сек, 2 канала, 48, 0 КГц, 16 бит)
    Язык : Russian
    ServiceKind/String : Complete Main
    Default : Нет
    Forced : Нет
    Аудио #4
    Идентификатор : 5
    Формат : AC-3
    Формат/Информация : Audio Coding 3
    Идентификатор кодека : A_AC3
    Продолжительность : 2 ч. 6 м.
    Вид битрейта : Постоянный
    Битрейт : 192 Кбит/сек
    Каналы : 2 канала
    Расположение каналов : Front: L R
    Частота : 48, 0 КГц
    Частота кадров : 31, 250 кадров/сек (1536 SPF)
    Битовая глубина : 16 бит
    Метод сжатия : С потерями
    Размер потока : 174 Мбайт (8%)
    Заголовок : Многоголосый \'\'Премьер-Видеофильм\'\' с вставками любительского двухголосого \'\'Dars Group\'\' (AC-3, Постоянный, 192 Кбит/сек, 2 канала, 48, 0 КГц, 16 бит)
    Язык : Russian
    ServiceKind/String : Complete Main
    Default : Нет
    Forced : Нет

    Скриншоты для ознакомления



    Все одноименные релизы в Клубе
    Время раздачи: 24/7 до первых 10 скачавших, потом ухожу с раздачи


    Мумия/The Mummy (1999) HDRip [H.264] [Hand Made Extended Cut]
    Рейтинг →
     (голосов: 1, оценка 5/5, голосовать можно 1 раз )

    Другие торренты по теме:

  • Мумия / The Mummy (1959) BDRip [H.264 / 1080p] скачать через торрент бесплатно
  • Мумия, пришедшая с холода / Mummy, came in from the cold (2007) IPTVRip скачать через торрент бесплатно
  • Мумия: Воскрешение / The Mummy Resurrected (2014) BDRip [H.264 / 1080] [VO] скачать через торрент бесплатно
  • Мумия возвращается / The Mummy Returns (2001) HD-DVDRip [H.264 / 1080p]
  • Мумия / The Mummy (2017) WEBRip [H.264 / 1080p] [Трейлер]
  • Мумия / The Mummy (1999, 2001) HDDVDRemux [VC-1 / 1080p] [Дилогия]
  • Мумия / The Mummy (2017) WEBRip [H.264 / 1080p-LQ] [Звук с TS] [AD]
  • Мумия / The Mummy (2017) WEBRip [H.264 / 720p-LQ] [Звук с TS] [AD]


    • Комментарии (0):

      Информация

      Информация

        Посетители, находящиеся в группе Гости, не могут оставлять комментарии в данной новости.

        ↓ Меню




        ↓ Опрос

        Вы добавили сайт в закладки?
        Да
        Нет


        Top 10 за месяц (Другое)