.
Авторизация | Регистрация
Хочешь лучшие торренты? Добавь свой email!
Добавить

Торрент скачать бесплатно

» » Беременность / Embarazados (2016) HDRip [MVO] [AD] торрент скачать бесплатно


    Беременность / Embarazados (2016) HDRip [MVO] [AD] торрент скачать бесплатно

    Опубликовал: Админ | Дата: 24-02-2018, 05:00 | .torrent скачали: 1

    Беременность / Embarazados (2016) HDRip [MVO] [AD]Производство: Испания/Audiovisuales del Monte S.L., Instituto de la Cinematografía y de las Artes Audiovisuales (ICAA), Kowalski Films
    Жанр: Комедия
    Режиссер: Хуана Масиас

    Актеры
    Пако Леон, Александра Хименес, Альберто Амарилья, Эрнесто Севилья, Айноа Айербе, Иньяки Фонт, Гойсальде Нуньес, Карра Элехальде, Белен Лопес

    Описание

    Всё просто: в результате слияния яйцеклетки и сперматозоида получается эмбрион. Но когда у тебя мало сперматозоидов, и к тому же они ленивые, а у твоей женщины пременопауза в 37 лет, всё становится гораздо сложнее.

    Релиз от: GreenРай Studio
    Продолжительность: 01: 44: 55
    Качество видео: HDRip
    Перевод: Многоголосый закадровый, любительский (GreenРай Studio)
    Субтитры: отсутствуют
    Реклама: присутствуют аудио, видео и текстовые вставки рекламы
    Видео: Xvid, 720x304, ~1408 Kbps
    Аудио: AC3, 2 ch, 448 Kbps

    General
    Complete name : /media/win/TORRENT/UPLOAD_TORRENTS/Embarazados.2016.P.HDRip.1400MB.avi
    Format : AVI
    Format/Info : Audio Video Interleave
    File size : 1.37 GiB
    Duration : 1 h 44 min
    Overall bit rate : 1 865 kb/s
    Writing application : VirtualDubMod 1.5.10.2 (build 2540/release)
    Writing library : VirtualDubMod build 2540/release
    Video
    ID : 0
    Format : MPEG-4 Visual
    Format profile : Advanced Simple@L5
    Format settings : BVOP2
    Format settings, BVOP : 2
    Format settings, QPel : No
    Format settings, GMC : No warppoints
    Format settings, Matrix : Default (MPEG)
    Codec ID : XVID
    Codec ID/Hint : XviD
    Duration : 1 h 44 min
    Bit rate : 1 408 kb/s
    Width : 720 pixels
    Height : 304 pixels
    Display aspect ratio : 2.35: 1
    Frame rate : 24.000 FPS
    Color space : YUV
    Chroma subsampling : 4: 2: 0
    Bit depth : 8 bits
    Scan type : Progressive
    Compression mode : Lossy
    Bits/(Pixel*Frame) : 0.268
    Stream size : 1.03 GiB (75%)
    Writing library : XviD 1.2.1 (UTC 2008-12-04)
    Audio
    ID : 1
    Format : AC-3
    Format/Info : Audio Coding 3
    Codec ID : 2000
    Duration : 1 h 44 min
    Bit rate mode : Constant
    Bit rate : 448 kb/s
    Channel(s) : 2 channels
    Channel positions : Front: L R
    Sampling rate : 48.0 kHz
    Frame rate : 31.250 FPS (1536 SPF)
    Bit depth : 16 bits
    Compression mode : Lossy
    Stream size : 336 MiB (24%)
    Alignment : Split accross interleaves
    Interleave, duration : 42 ms (1.00 video frame)
    Interleave, preload duration : 500 ms
    Service kind : Complete Main

    Скриншоты для ознакомления



    Все одноименные релизы в Клубе
    Время раздачи: с 09: 00 до 21: 00 до пяти скачавших (до появления первых 3-5 скачавших)


    Беременность/Embarazados (2016) HDRip [MVO] [AD]
    Рейтинг →
     (голосов: 1, оценка 3/5, голосовать можно 1 раз )

    Другие торренты по теме:

  • Беременность / Embarazados (2016) BDRip [H.264 / 1080p] [SP / EN Sub]


    • Комментарии (0):

      Информация

      Информация

        Посетители, находящиеся в группе Гости, не могут оставлять комментарии в данной новости.

        ↓ Меню




        ↓ Опрос

        Вы добавили сайт в закладки?
        Да
        Нет


        Top 10 за месяц (Другое)