.
Авторизация | Регистрация
Хочешь лучшие торренты? Добавь свой email!
Добавить

Торрент скачать бесплатно

» » Сильвио / Sylvio (2017) WEB-DLRip [MVO] [AD] торрент скачать бесплатно


    Сильвио / Sylvio (2017) WEB-DLRip [MVO] [AD] торрент скачать бесплатно

    Опубликовал: Админ | Дата: 14-02-2018, 05:00 | .torrent скачали: 0

    Сильвио / Sylvio (2017) WEB-DLRip [MVO] [AD]Производство: США/Dogfish Pictures, Privateer Entertainment, Salem Street Entertainment
    Жанр: Комедия, Драма, Фэнтези
    Режиссер: Кентакер Одли, Альберт Бирни

    Актеры
    Sylvio Bernardi, Кентакер Одли, Steve Bauer, Тэннер Бирд, Joey Bird, Альберт Бирни, Эфраим Бирни, Miel Bredouw, Amelinda Burich

    Описание

    Сильвио Бернарди — не человек, а антропоморфная горилла, которая просто пытается найти своё место под солнцем и жить в большом городе среди людей. Сильвио работает в конторе по сбору долгов, где общается с клиентами при помощи речевого синтезатора, но на самом деле он мечтает о карьере автора кукольных мультфильмов. Однажды среди его клиентов оказывается человек, снимающий в собственном подвале шоу для кабельного телеканала — и Сильвио видит в этой встрече возможность продемонстрировать свои таланты.

    Дата мировой премьеры: 11.03.2017
    Дата российской премьеры: неизвестно
    Релиз от: KOSHARA
    Продолжительность: 01: 21: 28
    Качество видео: WEB-DLRip
    Перевод: Многоголосый закадровый (Синема УС)
    Субтитры: отсутствуют
    Реклама: присутствуют аудио, видео и текстовые вставки рекламы
    Видео: Xvid, 720x400, ~2007 Kbps
    Аудио: AC3, 2 ch, 384 Kbps

    General
    Complete name : /media/win/TORRENT/UPLOAD TORRENTS/Sylvio.2017.P.WEB-DLRip.14OOMB.avi
    Format : AVI
    Format/Info : Audio Video Interleave
    File size : 1.37 GiB
    Duration : 1 h 21 min
    Overall bit rate : 2 401 kb/s
    Writing application : VirtualDubMod 1.5.10.2 (build 2540/release)
    Writing library : VirtualDubMod build 2540/release
    Video
    ID : 0
    Format : MPEG-4 Visual
    Format profile : Advanced Simple@L5
    Format settings : BVOP2
    Format settings, BVOP : 2
    Format settings, QPel : No
    Format settings, GMC : No warppoints
    Format settings, Matrix : Default (MPEG)
    Codec ID : XVID
    Codec ID/Hint : XviD
    Duration : 1 h 21 min
    Bit rate : 2 008 kb/s
    Width : 720 pixels
    Height : 400 pixels
    Display aspect ratio : 16: 9
    Frame rate : 23.976 (24000/1001) FPS
    Color space : YUV
    Chroma subsampling : 4: 2: 0
    Bit depth : 8 bits
    Scan type : Progressive
    Compression mode : Lossy
    Bits/(Pixel*Frame) : 0.291
    Stream size : 1.14 GiB (84%)
    Writing library : XviD 1.2.1 (UTC 2008-12-04)
    Audio
    ID : 1
    Format : AC-3
    Format/Info : Audio Coding 3
    Codec ID : 2000
    Duration : 1 h 21 min
    Bit rate mode : Constant
    Bit rate : 384 kb/s
    Channel(s) : 2 channels
    Channel positions : Front: L R
    Sampling rate : 48.0 kHz
    Frame rate : 31.250 FPS (1536 SPF)
    Bit depth : 16 bits
    Compression mode : Lossy
    Stream size : 224 MiB (16%)
    Alignment : Split accross interleaves
    Interleave, duration : 42 ms (1.00 video frame)
    Interleave, preload duration : 500 ms
    Service kind : Complete Main

    Скриншоты для ознакомления



    Все одноименные релизы в Клубе
    Время раздачи: с 09: 00 до 21: 00 до пяти скачавших (до появления первых 3-5 скачавших)


    Сильвио/Sylvio (2017) WEB-DLRip [MVO] [AD]
    Рейтинг →
     (голосов: 1, оценка 3/5, голосовать можно 1 раз )

    Другие торренты по теме:



      Комментарии (0):

      Информация

      Информация

        Посетители, находящиеся в группе Гости, не могут оставлять комментарии в данной новости.

        ↓ Меню




        ↓ Опрос

        Вы добавили сайт в закладки?
        Да
        Нет


        Top 10 за месяц (Другое)