.
Авторизация | Регистрация
Хочешь лучшие торренты? Добавь свой email!
Добавить

Торрент скачать бесплатно

» » Кто подставил кролика Роджера / Who Framed Roger Rabbit (1988) HDRip [H.264] [Hand Made Extended Cut] торрент скачать бесплатно


    Кто подставил кролика Роджера / Who Framed Roger Rabbit (1988) HDRip [H.264] [Hand Made Extended Cut] торрент скачать бесплатно

    Опубликовал: Админ | Дата: 6-02-2018, 05:01 | .torrent скачали: 1

    Кто подставил кролика Роджера / Who Framed Roger Rabbit (1988) HDRip [H.264] [Hand Made Extended Cut]Производство: США/Amblin Entertainment, Silver Screen Partners III, Touchstone Pictures, Walt Disney Feature Animation
    Жанр: Детектив, Комедия, Приключения, Семейный
    Режиссер: Роберт Земекис

    Актеры
    Боб Хоскинс, Кристофер Ллойд, Джоанна Кэссиди, Чарльз Флайшер, Стабби Кэй, Алан Тилверн, Ричард ЛеПарментье, Лу Хирш, Бетси Брэнтли, Джоэл Силвер

    Описание

    По роману Гари К. Вульфа Who Censored Roger Rabbit?. Частный детектив расследует загадочное преступление, в котором подозревается… мультипликационный персонаж кролик Роджер! Сыщик попадает в непредсказуемый мир, где его ожидают нарисованные злодеи с настоящими револьверами, говорящий автомобиль и соблазнительная мультяшная красотка. Наконец, на горизонте появляется мрачная фигура того, кто подставил кролика Роджера.

    Возраст: 6+ (зрителям, достигшим 6 лет)
    Рейтинг MPAA: PG (рекомендуется присутствие родителей)
    Релиз от: MAG3131
    Продолжительность: 01: 47: 38
    Качество видео: HDRip
    Перевод: Дублированный с вставками любительского псевдо-дубляжа \'\'Dars Group\'\'
    Субтитры: Отсутствуют
    Видео: AVC/H.264, 720x400, ~1623 kbps, 23, 976 fps
    Аудио: AC3, 2 ch, 192 kbps
    Данная версия фильма на Blu-Ray не выходила как расширенная версия. Поэтому это Неофициальная (фанатная) версия. Добавленные сцены отличаются по качеству видео от самого фильма.

    Общее
    Уникальный идентификатор : 82509279097512753771738749833015961987 (0x3E12B5899165527647F3A5C7BD97A983)
    Полное имя : Кто подставил кролика Роджера (Расширенная версия) (Who Framed Roger Rabbit) (Extended Cut).mkv
    Формат : Matroska
    Версия формата : Version 2
    Размер файла : 1, 37 Гбайт
    Продолжительность : 1 ч. 47 м.
    Общий поток : 1816 Кбит/сек
    Дата кодирования : UTC 2018-02-01 13: 47: 19
    Программа кодирования : mkvmerge v20.0.0 (\'I Am The Sun\') 64-bit
    Библиотека кодирования : libebml v1.3.5 + libmatroska v1.4.8
    Видео
    Идентификатор : 1
    Формат : AVC
    Формат/Информация : Advanced Video Codec
    Профиль формата : High@L4.1
    Настройки формата : CABAC/12 Ref Frames
    Параметр CABAC формата : Да
    Параметр RefFrames формата : 12 кадров
    Идентификатор кодека : V_MPEG4/ISO/AVC
    Продолжительность : 1 ч. 47 м.
    Битрейт : 1623 Кбит/сек
    Ширина : 720 пикселей
    Высота : 400 пикселей
    Соотношение сторон : 16: 9
    Режим частоты кадров : Постоянный
    Частота кадров : 23, 976 (23976/1000) кадра/сек
    Цветовое пространство : YUV
    Субдискретизация насыщенности : 4: 2: 0
    Битовая глубина : 8 бит
    Тип развёртки : Прогрессивная
    Бит/(Пиксели*Кадры) : 0.235
    Размер потока : 1, 19 Гбайт (87%)
    Заголовок : Кто подставил кролика Роджера (Расширенная версия) (Who Framed Roger Rabbit) (Extended Cut)
    Библиотека кодирования : x264 core 152 r2851 ba24899
    Настройки программы : cabac=1/ref=12/deblock=1: -1: -1/analyse=0x3: 0x133/me=umh/subme=11/psy=1/psy_rd=1.00: 0.15/mixed_ref=1/me_range=64/chroma_me=1/trellis=2/8x8dct=1/cqm=0/deadzone=21, 11/fast_pskip=0/chroma_qp_offset=-3/threads=6/lookahead_threads=1/sliced_threads=0/nr=0/decimate=0/interlaced=0/bluray_compat=0/constrained_intra=0/bframes=16/b_pyramid=2/b_adapt=2/b_bias=0/direct=3/weightb=1/open_gop=0/weightp=2/keyint=240/keyint_min=23/scenecut=40/intra_refresh=0/rc_lookahead=60/rc=2pass/mbtree=0/bitrate=1623/ratetol=1.0/qcomp=0.60/qpmin=0/qpmax=69/qpstep=4/cplxblur=20.0/qblur=0.5/vbv_maxrate=50000/vbv_bufsize=62500/nal_hrd=none/filler=0/ip_ratio=1.40/pb_ratio=1.30/aq=1: 1.00
    Язык : English
    Default : Да
    Forced : Нет
    Аудио
    Идентификатор : 2
    Формат : AC-3
    Формат/Информация : Audio Coding 3
    Идентификатор кодека : A_AC3
    Продолжительность : 1 ч. 47 м.
    Вид битрейта : Постоянный
    Битрейт : 192 Кбит/сек
    Каналы : 2 канала
    Расположение каналов : Front: L R
    Частота : 48, 0 КГц
    Частота кадров : 31, 250 кадров/сек (1536 SPF)
    Битовая глубина : 16 бит
    Метод сжатия : С потерями
    Размер потока : 148 Мбайт (11%)
    Заголовок : Дублированный \'\'Blu-ray EUR\'\' с вставками любительского псевдо-дубляжа \'\'Dars Group\'\' (AC-3, Постоянный, 192 Кбит/сек, 2 канала, 48, 0 КГц, 16 бит)
    Язык : Russian
    ServiceKind/String : Complete Main
    Default : Да
    Forced : Нет

    Скриншоты для ознакомления



    Все одноименные релизы в Клубе
    Время раздачи: 24/7 до первых 10 скачавших, потом ухожу с раздачи


    Кто подставил кролика Роджера/Who Framed Roger Rabbit (1988) HDRip [H.264] [Hand Made Extended Cut]
    Рейтинг →
     (голосов: 1, оценка 4/5, голосовать можно 1 раз )

    Другие торренты по теме:

  • Кто подставил кролика Роджера / Who Framed Roger Rabbit (1988) BDRip [H.265 / 1080p-LQ]
  • Кто подставил кролика Роджера / Who Framed Roger Rabbit (1988) BDRip [H.264 / 1080p]


    • Комментарии (0):

      Информация

      Информация

        Посетители, находящиеся в группе Гости, не могут оставлять комментарии в данной новости.

        ↓ Меню




        ↓ Опрос

        Вы добавили сайт в закладки?
        Да
        Нет


        Top 10 за месяц (Другое)