.
Авторизация | Регистрация
Хочешь лучшие торренты? Добавь свой email!
Добавить

Торрент скачать бесплатно

» » Лжец, лжец / Liar Liar (1997) HDRip [H.264] [Hand Made Extended Cut] торрент скачать бесплатно


    Лжец, лжец / Liar Liar (1997) HDRip [H.264] [Hand Made Extended Cut] торрент скачать бесплатно

    Опубликовал: Админ | Дата: 6-02-2018, 05:01 | .torrent скачали: 0

    Лжец, лжец / Liar Liar (1997) HDRip [H.264] [Hand Made Extended Cut]Производство: США/Imagine Entertainment, Universal Pictures
    Жанр: Комедия, Фэнтези
    Режиссер: Том Шэдьяк

    Актеры
    Джим Керри, Мора Тирни, Джастин Купер, Кэри Элвис, Энн Хейни, Дженнифер Тилли, Аманда Донохью, Джейсон Бернард, Свузи Кёрц, Митчелл Райан

    Описание

    Флетчер Рид — блестящий адвокат и неисправимый лжец. Он по привычке врет жене Одри, сыну Максу и учит клиентов подстраивать правду под свои нужды, перекраивать истину ради своей выгоды. Жена бросает Флетчера из-за его вредной привычки лгать, а сын Макс в свой день рождения, задувая свечи на торте, загадывает только одно желание: Хочу, чтоб мой любимый папочка перестал постоянно врать. Желание сбывается, и неожиданно для Флетчера Рида язык, который всегда был его рабочим инструментом, превращается в его главного врага. Флетчер начинает говорить обидную правду своему начальнику и клиентам. Эта правдивость может стоить адвокату работы! Но самое страшное ждет правдивого поневоле Флетчера в зале суда, когда будет слушаться дело о разводе его клиента. Без вранья он не сможет выиграть! Да, этот день своей жизни Флетчер Рид не забудет никогда.

    Возраст: 12+ (зрителям, достигшим 12 лет)
    Рейтинг MPAA: PG-13 (детям до 13 лет просмотр нежелателен)
    Релиз от: MAG3131
    Продолжительность: 01: 30: 18
    Качество видео: HDRip
    Перевод: Многоголосый с вставками любительского двухголосого \'\'Dars Group\'\' x3
    Субтитры: Отсутствуют
    Видео: AVC/H.264, 720x408, ~2670 kbps, 23, 976 fps
    Аудио #01: AC3, 2 ch, 192 kbps (Русский - Многоголосый \'\'BD EUR\'\' с вставками любительского двухголосого \'\'Dars Group\'\')
    Аудио #02: AC3, 2 ch, 192 kbps (Русский - Многоголосый \'\'НТВ\'\' с вставками любительского двухголосого \'\'Dars Group\'\')
    Аудио #03: AC3, 2 ch, 192 kbps (Русский - Многоголосый \'\'СТС\'\' с вставками любительского двухголосого \'\'Dars Group\'\')
    Данная версия фильма на Blu-Ray не выходила как расширенная версия. Поэтому это Неофициальная (фанатная) версия. Добавленные сцены отличаются по качеству видео от самого фильма.

    Общее
    Уникальный идентификатор : 40231737951522284492144246881467397357 (0x1E4459D3813D1817CDC18F43518274ED)
    Полное имя : Лжец, лжец (Расширенная версия) (Liar, Liar) (Extended Cut).mkv
    Формат : Matroska
    Версия формата : Version 2
    Размер файла : 2, 05 Гбайт
    Продолжительность : 1 ч. 30 м.
    Общий поток : 3247 Кбит/сек
    Дата кодирования : UTC 2018-02-01 14: 52: 03
    Программа кодирования : mkvmerge v20.0.0 (\'I Am The Sun\') 64-bit
    Библиотека кодирования : libebml v1.3.5 + libmatroska v1.4.8
    Видео
    Идентификатор : 1
    Формат : AVC
    Формат/Информация : Advanced Video Codec
    Профиль формата : High@L4.1
    Настройки формата : CABAC/12 Ref Frames
    Параметр CABAC формата : Да
    Параметр RefFrames формата : 12 кадров
    Идентификатор кодека : V_MPEG4/ISO/AVC
    Продолжительность : 1 ч. 30 м.
    Битрейт : 2670 Кбит/сек
    Ширина : 720 пикселей
    Высота : 408 пикселей
    Соотношение сторон : 16: 9
    Режим частоты кадров : Постоянный
    Частота кадров : 23, 976 (23976/1000) кадра/сек
    Цветовое пространство : YUV
    Субдискретизация насыщенности : 4: 2: 0
    Битовая глубина : 8 бит
    Тип развёртки : Прогрессивная
    Бит/(Пиксели*Кадры) : 0.379
    Размер потока : 1, 64 Гбайт (80%)
    Заголовок : Лжец, лжец (Расширенная версия) (Liar, Liar) (Extended Cut)
    Библиотека кодирования : x264 core 152 r2851 ba24899
    Настройки программы : cabac=1/ref=12/deblock=1: -1: -1/analyse=0x3: 0x133/me=umh/subme=11/psy=1/psy_rd=1.00: 0.15/mixed_ref=1/me_range=64/chroma_me=1/trellis=2/8x8dct=1/cqm=0/deadzone=21, 11/fast_pskip=0/chroma_qp_offset=-3/threads=6/lookahead_threads=1/sliced_threads=0/nr=0/decimate=0/interlaced=0/bluray_compat=0/constrained_intra=0/bframes=16/b_pyramid=2/b_adapt=2/b_bias=0/direct=3/weightb=1/open_gop=0/weightp=2/keyint=240/keyint_min=23/scenecut=40/intra_refresh=0/rc_lookahead=60/rc=2pass/mbtree=0/bitrate=2670/ratetol=1.0/qcomp=0.60/qpmin=0/qpmax=69/qpstep=4/cplxblur=20.0/qblur=0.5/vbv_maxrate=50000/vbv_bufsize=62500/nal_hrd=none/filler=0/ip_ratio=1.40/pb_ratio=1.30/aq=1: 1.00
    Язык : English
    Default : Да
    Forced : Нет
    Аудио #1
    Идентификатор : 2
    Формат : AC-3
    Формат/Информация : Audio Coding 3
    Идентификатор кодека : A_AC3
    Продолжительность : 1 ч. 30 м.
    Вид битрейта : Постоянный
    Битрейт : 192 Кбит/сек
    Каналы : 2 канала
    Расположение каналов : Front: L R
    Частота : 48, 0 КГц
    Частота кадров : 31, 250 кадров/сек (1536 SPF)
    Битовая глубина : 16 бит
    Метод сжатия : С потерями
    Размер потока : 124 Мбайт (6%)
    Заголовок : Многоголосый \'\'Blu-ray EUR\'\' с вставками любительского двухголосого \'\'Dars Group\'\' (AC-3, Постоянный, 192 Кбит/сек, 2 канала, 48, 0 КГц, 16 бит)
    Язык : Russian
    ServiceKind/String : Complete Main
    Default : Да
    Forced : Нет
    Аудио #2
    Идентификатор : 3
    Формат : AC-3
    Формат/Информация : Audio Coding 3
    Идентификатор кодека : A_AC3
    Продолжительность : 1 ч. 30 м.
    Вид битрейта : Постоянный
    Битрейт : 192 Кбит/сек
    Каналы : 2 канала
    Расположение каналов : Front: L R
    Частота : 48, 0 КГц
    Частота кадров : 31, 250 кадров/сек (1536 SPF)
    Битовая глубина : 16 бит
    Метод сжатия : С потерями
    Размер потока : 124 Мбайт (6%)
    Заголовок : Многоголосый \'\'НТВ\'\' с вставками любительского двухголосого \'\'Dars Group\'\' (AC-3, Постоянный, 192 Кбит/сек, 2 канала, 48, 0 КГц, 16 бит)
    Язык : Russian
    ServiceKind/String : Complete Main
    Default : Нет
    Forced : Нет
    Аудио #3
    Идентификатор : 4
    Формат : AC-3
    Формат/Информация : Audio Coding 3
    Идентификатор кодека : A_AC3
    Продолжительность : 1 ч. 30 м.
    Вид битрейта : Постоянный
    Битрейт : 192 Кбит/сек
    Каналы : 2 канала
    Расположение каналов : Front: L R
    Частота : 48, 0 КГц
    Частота кадров : 31, 250 кадров/сек (1536 SPF)
    Битовая глубина : 16 бит
    Метод сжатия : С потерями
    Размер потока : 124 Мбайт (6%)
    Заголовок : Многоголосый \'\'СТС\'\' с вставками любительского двухголосого \'\'Dars Group\'\' (AC-3, Постоянный, 192 Кбит/сек, 2 канала, 48, 0 КГц, 16 бит)
    Язык : Russian
    ServiceKind/String : Complete Main
    Default : Нет
    Forced : Нет

    Скриншоты для ознакомления



    Все одноименные релизы в Клубе
    Время раздачи: 24/7 до первых 10 скачавших, потом ухожу с раздачи


    Лжец, лжец/Liar Liar (1997) HDRip [H.264] [Hand Made Extended Cut]
    Рейтинг →
     (голосов: 1, оценка 4/5, голосовать можно 1 раз )

    Другие торренты по теме:

  • Лжец, лжец / Liar Liar (1997) BDRip [H.264 / 720p]
  • Лжец, лжец / Liar Liar (1997) BDRip [H.264]
  • Макс Уорлок | Лжец (2014) [DOC]
  • Александр Тарасов | Прирожденный лжец. Я или ты (2016) [EPUB, FB2, MOBI]
  • Большой толстый лжец / Big Fat Liar (2002) DVDRip
  • Лжец, Великий и Ужасный / The Wizard of Lies (2017) WEB-DLRip [H.264] [MP4|640x480@852x480] [AD]
  • Лжец, Великий и Ужасный / The Wizard of Lies (2017) WEB-DL [H.264] Novamedia [MP4|1280x720] [AD]
  • Лжец, Великий и Ужасный / The Wizard of Lies (2017) WEB-DLRip [Line] [AD]


    • Комментарии (0):

      Информация

      Информация

        Посетители, находящиеся в группе Гости, не могут оставлять комментарии в данной новости.

        ↓ Меню




        ↓ Опрос

        Вы добавили сайт в закладки?
        Да
        Нет


        Top 10 за месяц (Другое)