.
Авторизация | Регистрация
Хочешь лучшие торренты? Добавь свой email!
Добавить

Торрент скачать бесплатно

» » Безумный мир / Yat nim mou ming (2016) HDRip [MVO] [AD] торрент скачать бесплатно


    Безумный мир / Yat nim mou ming (2016) HDRip [MVO] [AD] торрент скачать бесплатно

    Опубликовал: Админ | Дата: 29-01-2018, 05:00 | .torrent скачали: 0

    Безумный мир / Yat nim mou ming (2016) HDRip [MVO] [AD]Производство: Гонконг
    Жанр: Драма
    Режиссер: Вон Чунь

    Актеры
    Шон Юе, Эрик Цан, Элэйн Цзинь, Чармэйн Фон

    Описание

    После нервного срыва, приведшего к биполярному расстройству и году в психиатрическом учреждении, Тун возвращается из Китая в Гонконг к отцу. Тот живёт в коммунальной квартире в крохотной комнатке и пытается морально поддержать сына. А сам Тун старается начать новую жизнь, но избавиться от воспоминаний ему не удается.

    Продолжительность: 01: 42: 12
    Качество видео: HDRip
    Перевод: Многоголосый закадровый
    Субтитры: отсутствуют
    Реклама: присутствуют аудио, видео и текстовые вставки рекламы
    Видео: Xvid, 720x304, ~1582 Kbps
    Аудио: AC3, 2 ch, 448 Kbps

    General
    Complete name : /media/win/TORRENT/UPLOAD TORRENTS/Mad.World.2016.P.HDRip.14OOMB.avi
    Format : AVI
    Format/Info : Audio Video Interleave
    File size : 1.46 GiB
    Duration : 1 h 42 min
    Overall bit rate : 2 040 kb/s
    Writing application : VirtualDubMod 1.5.10.2 (build 2540/release)
    Writing library : VirtualDubMod build 2540/release
    Video
    ID : 0
    Format : MPEG-4 Visual
    Format profile : Advanced Simple@L5
    Format settings : BVOP2
    Format settings, BVOP : 2
    Format settings, QPel : No
    Format settings, GMC : No warppoints
    Format settings, Matrix : Default (MPEG)
    Codec ID : XVID
    Codec ID/Hint : XviD
    Duration : 1 h 42 min
    Bit rate : 1 583 kb/s
    Width : 720 pixels
    Height : 304 pixels
    Display aspect ratio : 2.35: 1
    Frame rate : 23.976 (24000/1001) FPS
    Color space : YUV
    Chroma subsampling : 4: 2: 0
    Bit depth : 8 bits
    Scan type : Progressive
    Compression mode : Lossy
    Bits/(Pixel*Frame) : 0.302
    Stream size : 1.13 GiB (78%)
    Writing library : XviD 1.2.1 (UTC 2008-12-04)
    Audio
    ID : 1
    Format : AC-3
    Format/Info : Audio Coding 3
    Codec ID : 2000
    Duration : 1 h 42 min
    Bit rate mode : Constant
    Bit rate : 448 kb/s
    Channel(s) : 2 channels
    Channel positions : Front: L R
    Sampling rate : 48.0 kHz
    Frame rate : 31.250 FPS (1536 SPF)
    Bit depth : 16 bits
    Compression mode : Lossy
    Stream size : 328 MiB (22%)
    Alignment : Split accross interleaves
    Interleave, duration : 42 ms (1.00 video frame)
    Interleave, preload duration : 500 ms
    Service kind : Complete Main


    Безумный мир/Yat nim mou ming (2016) HDRip [MVO] [AD]
    Рейтинг →
     (голосов: 1, оценка 3/5, голосовать можно 1 раз )

    Другие торренты по теме:

  • Этот безумный, безумный, безумный, безумный мир / Its a Mad, Mad, Mad, Mad World (1963) BDRip [H.264 / 1080p] [Extended, The Criterion Collection] скачать через торрент бесплатно
  • Безумный Макс: Дорога ярости / Mad Max: Fury Road (2015) WEBRip [H.264 / 720p-LQ] [Трейлер]
  • Безумный Макс: Дорога ярости / Mad Max: Fury Road (2015) WEBRip [1080p] [Трейлер] [EN]
  • Безумный Макс / Mad Max (2014) WEBRip [H.264 / 1080p-LQ] [Трейлер]
  • Безумный Макс: Дорога ярости / Mad Max: Fury Road (2015) DCPRip [2K] [Трейлер]
  • Безумный Макс: Дорога ярости / Mad Max: Fury Road (2015) WEBRip [1080p] [Трейлер #2] скачать через торрент бесплатно
  • Безумный Макс: Дорога ярости / Mad Max: Fury Road (2015) WEBRip [1080p] [Трейлер #3] скачать через торрент бесплатно
  • Tom Holkenborg aka Junkie XL - Безумный Макс: Дорога ярости / Mad Max: Fury Road (Original Motion Picture Soundtrack) (2015) Deluxe Version [AAC|WEB-DL|256 кб / с]<Soundtrack> скачать через торрент бесплатно


    • Комментарии (0):

      Информация

      Информация

        Посетители, находящиеся в группе Гости, не могут оставлять комментарии в данной новости.

        ↓ Меню




        ↓ Опрос

        Вы добавили сайт в закладки?
        Да
        Нет


        Top 10 за месяц (Другое)