.
Авторизация | Регистрация
Хочешь лучшие торренты? Добавь свой email!
Добавить

Торрент скачать бесплатно

  • support: webmaster@btracker.org
» » Мама Роза / Ma Rosa (2016) WEB-DLRip [MVO] [AD] торрент скачать бесплатно


    Мама Роза / Ma Rosa (2016) WEB-DLRip [MVO] [AD] торрент скачать бесплатно

    Опубликовал: Админ | Дата: 26-01-2018, 05:00 | .torrent скачали: 0

    Мама Роза / Ma Rosa (2016) WEB-DLRip [MVO] [AD]Производство: Филиппины/Centerstage Productions
    Жанр: Драма
    Режиссер: Брийанте Мендоса

    Актеры
    Жаклин Хосе, Хулио Диас, Барон Гейслер, Jomari Angeles, Нил Райан Сесе, Мерседес Кабраль, Энди Эйгенман, Марк Энтони Фернандес, Феликс Роко, Мон Конфиадо

    Описание

    У мамы Розы четверо детей. Она хозяйка маленького магазинчика в бедном районе Манилы, и все в округе ее любят. Чтобы свести концы с концами Роза и ее муж Нестор приторговывают небольшими дозами кокаина.
    Всё бы ничего, но однажды их ловят с поличным. Тогда Розе и ее детям приходится идти на самые унизительные поступки, чтобы выкупить свободу у коррумпированной полиции.

    Дата мировой премьеры: 18.05.2016
    Релиз от: KOSHARA
    Продолжительность: 01: 51: 25
    Качество видео: WEB-DLRip
    Перевод: Многоголосый закадровый, любительский (Синема УС)
    Субтитры: Английские (неотключаемые)
    Реклама: присутствуют аудио, видео и текстовые вставки рекламы
    Видео: Xvid, 720x400, ~1555 Kbps
    Аудио: AC3, 2 ch, 192 Kbps

    General
    Complete name : /media/win/TORRENT/UPLOAD TORRENTS/ma.rosa.2016.P.DVDRip.14OOMB.avi
    Format : AVI
    Format/Info : Audio Video Interleave
    File size : 1.37 GiB
    Duration : 1 h 51 min
    Overall bit rate : 1 756 kb/s
    Writing application : VirtualDubMod 1.5.10.2 (build 2540/release)
    Writing library : VirtualDubMod build 2540/release
    Video
    ID : 0
    Format : MPEG-4 Visual
    Format profile : Advanced Simple@L5
    Format settings : BVOP2
    Format settings, BVOP : 2
    Format settings, QPel : No
    Format settings, GMC : No warppoints
    Format settings, Matrix : Default (MPEG)
    Codec ID : XVID
    Codec ID/Hint : XviD
    Duration : 1 h 51 min
    Bit rate : 1 555 kb/s
    Width : 720 pixels
    Height : 400 pixels
    Display aspect ratio : 16: 9
    Frame rate : 23.976 (24000/1001) FPS
    Color space : YUV
    Chroma subsampling : 4: 2: 0
    Bit depth : 8 bits
    Scan type : Progressive
    Compression mode : Lossy
    Bits/(Pixel*Frame) : 0.225
    Stream size : 1.21 GiB (89%)
    Writing library : XviD 1.2.1 (UTC 2008-12-04)
    Audio
    ID : 1
    Format : AC-3
    Format/Info : Audio Coding 3
    Codec ID : 2000
    Duration : 1 h 51 min
    Bit rate mode : Constant
    Bit rate : 192 kb/s
    Channel(s) : 2 channels
    Channel positions : Front: L R
    Sampling rate : 48.0 kHz
    Frame rate : 31.250 FPS (1536 SPF)
    Bit depth : 16 bits
    Compression mode : Lossy
    Stream size : 153 MiB (11%)
    Alignment : Split accross interleaves
    Interleave, duration : 42 ms (1.00 video frame)
    Interleave, preload duration : 500 ms
    Service kind : Complete Main


    Мама Роза/Ma Rosa (2016) WEB-DLRip [MVO] [AD]
    Рейтинг →
     (голосов: 1, оценка 4/5, голосовать можно 1 раз )

    Другие торренты по теме:



      Комментарии (0):

      Информация

      Информация

        Посетители, находящиеся в группе Гости, не могут оставлять комментарии в данной новости.

        ↓ Меню




        ↓ Опрос

        Вы добавили сайт в закладки?
        Да
        Нет


        Top 10 за месяц (Другое)