.
Авторизация | Регистрация
Хочешь лучшие торренты? Добавь свой email!
Добавить

Торрент скачать бесплатно

  • support: webmaster@btracker.org
» » Город тусклых огней / City of Tiny Lights (2016) WEB-DLRip [MVO] [AD] торрент скачать бесплатно


    Город тусклых огней / City of Tiny Lights (2016) WEB-DLRip [MVO] [AD] торрент скачать бесплатно

    Опубликовал: Админ | Дата: 25-01-2018, 05:00 | .torrent скачали: 1

    Город тусклых огней / City of Tiny Lights (2016) WEB-DLRip [MVO] [AD]Производство: Великобритания/BBC Films, Fel-UK, NDF International
    Жанр: Триллер, Драма, Криминал
    Режиссер: Пит Трэвис

    Актеры
    Риз Ахмед, Билли Пайпер, Джеймс Флойд, Каш Джамбо, Рошан Сет, Ханна Рэй, Антонио Аакил, Винсент Риган, Дэниэл Уэбб

    Описание

    Томми Ахтар — скромный частный сыщик. Его территория — мультикультурный плавильный котёл не самых благополучных районов Лондона. Его клиентура — рабочий люд, иммигранты, мелкие труженики сомнительных профессий — в общем, люди, которым не к кому больше обратиться за помощью. Как, например, Мелоди, представительница древнейшей профессии, которая просит Томми найти её подругу и коллегу Наташу. В поисках пропавшей девушки Томми оказывается втянут в паутину лжи и коррупции; он также осознаёт, что дело загадочным образом связано с ключевым событием из его собственного прошлого.

    Релиз от: GreenRay Studio
    Продолжительность: 01: 50: 09
    Качество видео: WEB-DLRip
    Перевод: Многоголосый закадровый, любительский (GreenРай Studio)
    Субтитры: отсутствуют
    Реклама: присутствуют аудио, видео и текстовые вставки рекламы
    Видео: Xvid, 720x304, ~1559 Kbps
    Аудио: MP3, 2 ch, 320 Kbps

    General
    Complete name : /media/win/TORRENT/UPLOAD TORRENTS/City.of.Tiny.Lights.2016.P.WEB-DLRip.1.46GB.avi
    Format : AVI
    Format/Info : Audio Video Interleave
    File size : 1.45 GiB
    Duration : 1 h 50 min
    Overall bit rate : 1 888 kb/s
    Writing application : VirtualDubMod 1.5.10.2 (build 2540/release)
    Writing library : VirtualDubMod build 2540/release
    Video
    ID : 0
    Format : MPEG-4 Visual
    Format profile : Advanced Simple@L5
    Format settings : BVOP2
    Format settings, BVOP : 2
    Format settings, QPel : No
    Format settings, GMC : No warppoints
    Format settings, Matrix : Default (MPEG)
    Codec ID : XVID
    Codec ID/Hint : XviD
    Duration : 1 h 50 min
    Bit rate : 1 559 kb/s
    Width : 720 pixels
    Height : 304 pixels
    Display aspect ratio : 2.35: 1
    Frame rate : 23.976 (24000/1001) FPS
    Color space : YUV
    Chroma subsampling : 4: 2: 0
    Bit depth : 8 bits
    Scan type : Progressive
    Compression mode : Lossy
    Bits/(Pixel*Frame) : 0.297
    Stream size : 1.20 GiB (83%)
    Writing library : XviD 1.2.1 (UTC 2008-12-04)
    Audio
    ID : 1
    Format : MPEG Audio
    Format version : Version 1
    Format profile : Layer 3
    Format settings : Joint stereo
    Codec ID : 55
    Codec ID/Hint : MP3
    Duration : 1 h 50 min
    Bit rate mode : Constant
    Bit rate : 320 kb/s
    Channel(s) : 2 channels
    Sampling rate : 48.0 kHz
    Compression mode : Lossy
    Stream size : 252 MiB (17%)
    Alignment : Aligned on interleaves
    Interleave, duration : 42 ms (1.00 video frame)
    Interleave, preload duration : 504 ms

    Скриншоты для ознакомления



    Все одноименные релизы в Клубе
    Время раздачи: c 09: 00 до 22: 00 до пяти скачавших (до появления первых 3-5 скачавших)


    Город тусклых огней/City of Tiny Lights (2016) WEB-DLRip [MVO] [AD]
    Рейтинг →
     (голосов: 1, оценка 3/5, голосовать можно 1 раз )

    Другие торренты по теме:

  • Тайный город / Город Тайн / Секретный город / Secret City (2016) HDTVRip (сезон 1, серии 1-2 из 6) NewStudio (обновляемая)
  • Злой город / Город порока / Wicked City (2015) WEB-DL [H.264 / 720p-LQ] (сезон 1, серия 1 из 10) (NewStudio) (обновляемая) скачать через торрент бесплатно
  • Злой город / Город порока / Wicked City (2015) WEB-DLRip (сезон 1, серии 1-2 из 10) NewStudio (обновляемая) скачать через торрент бесплатно
  • Злой город / Город порока / Wicked City (2015) WEB-DLRip (сезон 1, серии 1-8 из 8) Кириллица
  • Секретный город / Тайный город / Secret City (2016) HDTV [H.264 / 720p-LQ] (сезон 1, серии 1-2 из 6) SunshineStudio (Обновляемая)
  • Тайный город / Секретный город / Secret City (2016) HDTVRip [H.264 / 720p-LQ] (сезон 1, серии 1-4 из 6) BaibaKo (обновляемая)
  • Тайный город / Город Тайн / Secret City (2016) HDTVRip [H.264 / 720p-LQ] (сезон 1, серии 1-2 из 6) NewStudio (обновляемая)
  • Город и Город / The City and the City (2018) WEBRip [H.264 / 720p-LQ] (серии 1-4 из 4) Profix Media


    • Комментарии (0):

      Информация

      Информация

        Посетители, находящиеся в группе Гости, не могут оставлять комментарии в данной новости.

        ↓ Меню




        ↓ Опрос

        Вы добавили сайт в закладки?
        Да
        Нет


        Top 10 за месяц (Другое)