.
Авторизация | Регистрация
Хочешь лучшие торренты? Добавь свой email!
Добавить

Торрент скачать бесплатно

» » Лезвия славы: Звездуны на льду / Blades of Glory (2007) HDRip [H.264] [Hand Made Extended Cut] торрент скачать бесплатно


    Лезвия славы: Звездуны на льду / Blades of Glory (2007) HDRip [H.264] [Hand Made Extended Cut] торрент скачать бесплатно

    Опубликовал: Админ | Дата: 24-01-2018, 05:01 | .torrent скачали: 0

    Лезвия славы: Звездуны на льду / Blades of Glory (2007) HDRip [H.264] [Hand Made Extended Cut]Производство: США/DreamWorks SKG, Eyetronics, First Entertainment, MTV Films, Paramount Pictures
    Жанр: Комедия
    Режиссер: Джош Гордон, Уилл Спек

    Актеры
    Уилл Феррелл, Джон Хидер, Уилл Арнетт, Эми Полер, Дженна Фишер, Уильям Фихтнер, Крэйг Т. Нельсон, Романи Малко, Ник Свардсон, Скотт Хэмилтон

    Описание

    Каждый раз, когда самовлюбленный Чазз Майкл Майклс выходит на каток, он сразу показывает, что он — рок-звезда арены, окруженный вихрем ледяной крошки и толпой поклонниц. Его единственный соперник на льду — бывший вундеркинд Джимми МакЭлрой. Воспитанник детдома, он был замечен тренером фигурного катания на льду местного пруда. Дальше — годы тренировок, и вот МакЭлрой стал воплощением высших идеалов спорта. Чазз играет на публику. У него собственный фанатский клуб. Он — сексуальный тусовщик. А Джимми — это техника и форма, как в классической музыке. Они словно из двух разных миров, и именно это сказывается на их отношениях. Майклс и МакЭлрой и раньше встречались на соревнованиях, но всегда как непримиримые соперники за титул чемпиона мира. Давнее соперничество уже переросло во вражду. Яростная драка на мировом первенстве заканчивается одинаково плохо для обоих: их лишают золотых медалей и навсегда отлучают от большого спорта. Однажды Джимми осеняет блестящая идея. Для того, чтобы снова вернуться в большой спорт, Чаззу и Джимми нужно сменить амплуа — перейти в парное катание и стать первой мужской парой в истории фигурного катания. Но это не просто по многим причинам. Им необходимо преодолеть взаимную неприязнь, просто забыть о своей многолетней взаимной ненависти и стать друзьями, чтобы объединить усилия для общей победы.

    Возраст: 16+ (зрителям, достигшим 16 лет)
    Рейтинг MPAA: PG-13 (детям до 13 лет просмотр нежелателен)
    Релиз от: MAG3131
    Продолжительность: 01: 41: 42
    Качество видео: HDRip
    Перевод: Дублированный с вставками любительского псевдо-дубляжа \'\'Dars Group\'\'
    Субтитры: Отсутствуют
    Видео: AVC/H.264, 720x384, ~1728 kbps, 29, 970 fps
    Аудио: AC3, 2 ch, 192 kbps
    Данная версия фильма на Blu-Ray не выходила как расширенная версия. Поэтому это Неофициальная (фанатная) версия. Добавленные сцены отличаются по качеству видео от самого фильма.

    Общее
    Уникальный идентификатор : 168231954849524446846067665652269683900 (0x7E904BC308FEED3AF085CDD5DA3F94BC)
    Полное имя : Лезвия славы \'\'Звездуны на льду\'\' (Расширенная версия) (Blades Of Glory) (Extended Cut).mkv
    Формат : Matroska
    Версия формата : Version 2
    Размер файла : 1, 36 Гбайт
    Продолжительность : 1 ч. 41 м.
    Общий поток : 1920 Кбит/сек
    Дата кодирования : UTC 2018-01-23 06: 33: 02
    Программа кодирования : mkvmerge v20.0.0 (\'I Am The Sun\') 64-bit
    Библиотека кодирования : libebml v1.3.5 + libmatroska v1.4.8
    Видео
    Идентификатор : 1
    Формат : AVC
    Формат/Информация : Advanced Video Codec
    Профиль формата : High@L4.1
    Настройки формата : CABAC/12 Ref Frames
    Параметр CABAC формата : Да
    Параметр RefFrames формата : 12 кадров
    Идентификатор кодека : V_MPEG4/ISO/AVC
    Продолжительность : 1 ч. 41 м.
    Битрейт : 1728 Кбит/сек
    Ширина : 720 пикселей
    Высота : 384 пикселя
    Соотношение сторон : 1, 85: 1
    Режим частоты кадров : Постоянный
    Частота кадров : 29, 970 (29970/1000) кадров/сек
    Цветовое пространство : YUV
    Субдискретизация насыщенности : 4: 2: 0
    Битовая глубина : 8 бит
    Тип развёртки : Прогрессивная
    Бит/(Пиксели*Кадры) : 0.209
    Размер потока : 1, 20 Гбайт (88%)
    Заголовок : Лезвия славы \'\'Звездуны на льду\'\' (Расширенная версия) (Blades Of Glory) (Extended Cut)
    Библиотека кодирования : x264 core 152 r2851 ba24899
    Настройки программы : cabac=1/ref=12/deblock=1: -1: -1/analyse=0x3: 0x133/me=umh/subme=11/psy=1/psy_rd=1.00: 0.15/mixed_ref=1/me_range=64/chroma_me=1/trellis=2/8x8dct=1/cqm=0/deadzone=21, 11/fast_pskip=0/chroma_qp_offset=-3/threads=6/lookahead_threads=1/sliced_threads=0/nr=0/decimate=0/interlaced=0/bluray_compat=0/constrained_intra=0/bframes=16/b_pyramid=2/b_adapt=2/b_bias=0/direct=3/weightb=1/open_gop=0/weightp=2/keyint=300/keyint_min=29/scenecut=40/intra_refresh=0/rc_lookahead=60/rc=2pass/mbtree=0/bitrate=1728/ratetol=1.0/qcomp=0.60/qpmin=0/qpmax=69/qpstep=4/cplxblur=20.0/qblur=0.5/vbv_maxrate=50000/vbv_bufsize=62500/nal_hrd=none/filler=0/ip_ratio=1.40/pb_ratio=1.30/aq=1: 1.00
    Язык : English
    Default : Да
    Forced : Нет
    Аудио
    Идентификатор : 2
    Формат : AC-3
    Формат/Информация : Audio Coding 3
    Идентификатор кодека : A_AC3
    Продолжительность : 1 ч. 41 м.
    Вид битрейта : Постоянный
    Битрейт : 192 Кбит/сек
    Каналы : 2 канала
    Расположение каналов : Front: L R
    Частота : 48, 0 КГц
    Частота кадров : 31, 250 кадров/сек (1536 SPF)
    Битовая глубина : 16 бит
    Метод сжатия : С потерями
    Размер потока : 140 Мбайт (10%)
    Заголовок : Дублированный \'\'Пифагор\'\' с вставками любительского псевдо-дубляжа \'\'Dars Group\'\' (AC-3, Постоянный, 192 Кбит/сек, 2 канала, 48, 0 КГц, 16 бит)
    Язык : Russian
    ServiceKind/String : Complete Main
    Default : Да
    Forced : Нет

    Скриншоты для ознакомления



    Все одноименные релизы в Клубе
    Время раздачи: 24/7 до первых 10 скачавших, потом ухожу с раздачи


    Лезвия славы: Звездуны на льду/Blades of Glory (2007) HDRip [H.264] [Hand Made Extended Cut]
    Рейтинг →
     (голосов: 1, оценка 3/5, голосовать можно 1 раз )

    Другие торренты по теме:

  • Жанна Пояркова | Дети Лезвия (2006) [FB2]


    • Комментарии (0):

      Информация

      Информация

        Посетители, находящиеся в группе Гости, не могут оставлять комментарии в данной новости.

        ↓ Меню




        ↓ Опрос

        Вы добавили сайт в закладки?
        Да
        Нет


        Top 10 за месяц (Другое)