.
Авторизация | Регистрация
Хочешь лучшие торренты? Добавь свой email!
Добавить

Торрент скачать бесплатно

» » Жеребьевка смерти / Dead Draw (2016) WEB-DLRip [MVO] [AD] торрент скачать бесплатно


    Жеребьевка смерти / Dead Draw (2016) WEB-DLRip [MVO] [AD] торрент скачать бесплатно

    Опубликовал: Админ | Дата: 23-01-2018, 05:00 | .torrent скачали: 3

    Жеребьевка смерти / Dead Draw (2016) WEB-DLRip [MVO] [AD]Производство: США/Coin Operated Films, Rocket3
    Жанр: Триллер, Криминал
    Режиссер: Brian Klemesrud

    Актеры
    Майкл Эклунд, Битси Таллок, Джил Беллоуз, Бриттани Шоу, Слэйн, Джим Догерти, Энди Аренс, Фауст Чечо, Аарон Криппен, Джош Одор

    Описание

    Кроме грабителей 25 миллионов, кто-то еще узнает о деньгах и самолете в Мексику, и этот кто-то убивает пилота, из-за чего четыре друга-грабителя не могут улететь с деньгами. Друзья начинают подозревать друг друга, ищут стукача и превращаются во врагов. Найдут ли они предателя и смогут ли пережить эту ночь?

    Продолжительность: 01: 33: 37
    Качество видео: WEB-DLRip
    Перевод: Многоголосый закадровый (Синема УС)
    Субтитры: отсутствуют
    Реклама: присутствуют аудио, видео и текстовые вставки рекламы
    Видео: Xvid, 720x304, ~1682 Kbps
    Аудио: AC3, 2 ch, 384 Kbps

    General
    Complete name : /media/win/TORRENT/UPLOAD TORRENTS/Dead.Draw.2016.P.WEB-DLRip.14OOMB.avi
    Format : AVI
    Format/Info : Audio Video Interleave
    File size : 1.36 GiB
    Duration : 1 h 33 min
    Overall bit rate : 2 076 kb/s
    Writing application : VirtualDubMod 1.5.10.2 (build 2540/release)
    Writing library : VirtualDubMod build 2540/release
    Video
    ID : 0
    Format : MPEG-4 Visual
    Format profile : Advanced Simple@L5
    Format settings : BVOP2
    Format settings, BVOP : 2
    Format settings, QPel : No
    Format settings, GMC : No warppoints
    Format settings, Matrix : Default (MPEG)
    Codec ID : XVID
    Codec ID/Hint : XviD
    Duration : 1 h 33 min
    Bit rate : 1 683 kb/s
    Width : 720 pixels
    Height : 304 pixels
    Display aspect ratio : 2.35: 1
    Frame rate : 23.976 (24000/1001) FPS
    Color space : YUV
    Chroma subsampling : 4: 2: 0
    Bit depth : 8 bits
    Scan type : Progressive
    Compression mode : Lossy
    Bits/(Pixel*Frame) : 0.321
    Stream size : 1.10 GiB (81%)
    Writing library : XviD 1.2.1 (UTC 2008-12-04)
    Audio
    ID : 1
    Format : AC-3
    Format/Info : Audio Coding 3
    Codec ID : 2000
    Duration : 1 h 33 min
    Bit rate mode : Constant
    Bit rate : 384 kb/s
    Channel(s) : 2 channels
    Channel positions : Front: L R
    Sampling rate : 48.0 kHz
    Frame rate : 31.250 FPS (1536 SPF)
    Bit depth : 16 bits
    Compression mode : Lossy
    Stream size : 257 MiB (18%)
    Alignment : Split accross interleaves
    Interleave, duration : 42 ms (1.00 video frame)
    Interleave, preload duration : 500 ms
    Service kind : Complete Main

    Скриншоты для ознакомления



    Все одноименные релизы в Клубе
    Время раздачи: c 09: 00 до 22: 00 до пяти скачавших (до появления первых 3-5 скачавших)


    Жеребьевка смерти/Dead Draw (2016) WEB-DLRip [MVO] [AD]
    Рейтинг →
     (голосов: 1, оценка 3/5, голосовать можно 1 раз )

    Другие торренты по теме:

  • Чемпионат мира по футболу 2018. Жеребьевка "Бросаем жребий!" (2015.017.25) SATRip скачать через торрент бесплатно
  • Футбол. Лига Чемпионов 2016-2017. Жеребьевка раунда плей-офф (05.08.2016) HDTVRip [H.264 / 720p-LQ]
  • Футбол. Лига Европы 2016-2017. Жеребьевка раунда плей-офф (05.08.2016) HDTVRip [H.264 / 720p-LQ]
  • Футбол. Чемпионат Мира 2018. Финальный турнир. Жеребьевка (01.12.2017) WEB-DL [H.264 / 720p-LQ]
  • Футбол. Лига Европы УЕФА 2017-2018. Ньон (Швейцария). Жеребьевка 1 / 16 финала (11.12.2017) HDTVRip [H.264 / 720p-LQ] [hand made 50fps]
  • Футбол. Лига Чемпионов УЕФА 2017-2018. Ньон (Швейцария). Жеребьевка 1 / 8 финала (11.12.2017) HDTVRip [H.264 / 720p-LQ] [hand made 50fps]
  • Футбол. Лига Наций УЕФА 2018-2019. Лозанна (Швейцария). Жеребьевка группового этапа (24.01.2018) HDTVRip [H.264 / 720p-LQ] [hand made 50fps]


    • Комментарии (0):

      Информация

      Информация

        Посетители, находящиеся в группе Гости, не могут оставлять комментарии в данной новости.

        ↓ Меню




        ↓ Опрос

        Вы добавили сайт в закладки?
        Да
        Нет


        Top 10 за месяц (Другое)