.
Авторизация | Регистрация
Хочешь лучшие торренты? Добавь свой email!
Добавить

Торрент скачать бесплатно

» » Оно / It (2017) BDRip [H.264 / 1080p] [hand made 60fps] торрент скачать бесплатно


    Оно / It (2017) BDRip [H.264 / 1080p] [hand made 60fps] торрент скачать бесплатно

    Опубликовал: Админ | Дата: 19-01-2018, 05:00 | .torrent скачали: 0

    Оно / It (2017) BDRip [H.264 / 1080p] [hand made 60fps]Производство: США, New Line Cinema, KatzSmith Productions, Lin Pictures, RatPac-Dune Entertainment, Vertigo Entertainment
    Жанр: Ужасы, Триллер
    Режиссер: Андрес Мускетти

    Актеры
    Джейден Либерер, Джереми Рэй Тейлор, София Лиллис, Финн Вулфард, Чоузен Джейкобс, Джек Грейзер, Уайатт Олефф, Билл Скарсгард, Николас Хэмилтон, Джейк Сим

    Описание

    События разворачиваются в небольшой американской провинции. Жители городка Дерри обеспокоены, причиной тому – массовые исчезновения детей и жестокие убийства. Выясняется, что это дело рук озлобленного клоуна, который уже не одно столетие терроризирует город. В эпицентре происходящего оказывается группа подростков, которые вынуждены не только встретиться со своим страхом лицом к лицу, но и противостоять ему…

    Возраст: 18+ (зрителям, достигшим 18 лет. запрещено для детей)
    Рейтинг MPAA: R (лицам до 17 лет обязательно присутствие взрослого)
    Дата мировой премьеры: 5 сентября 2017
    Дата российской премьеры: 7 сентября 2017, Каро-Премьер
    Дата выхода DVD/Blu-ray релиза: 20 декабря 2017, Warner Bros.
    Релиз от: Tiberiumsun69
    Продолжительность: 02: 14: 42
    Качество видео: BDRip
    Перевод: Дублированный, любительский многоголосый, авторский
    Субтитры: Русские (Forced, Full), английские (Full, SDH)
    Видео: AVC/H.264, 1920x800 (2.40: 1), ~15, 1 mbps, 59.94 fps
    Аудио 1: AC3, 6 ch, 384 kbps - Русский - Дублированный (iTunes)
    Аудио 2: AC3, 6 ch, 448 kbps - Русский - Многоголосый (Paradox Omskbird)
    Аудио 3: AC3, 2 ch, 192 kbps - Русский - Авторский (Михаил Чадов)

    General
    Unique ID : 224214575503847116215399715247995334703 (0xA8AE280FEE6D54D0A4FBE8D6348DB02F)
    Complete name : D: Оно 1080p 60fps.mkv
    Format : Matroska
    Format version : Version 4/Version 2
    File size : 15.1 GiB
    Duration : 2 h 14 min
    Overall bit rate mode : Variable
    Overall bit rate : 16.1 Mb/s
    Movie name : It 2017 by Tiberiumsun69
    Encoded date : UTC 2018-01-18 03: 40: 13
    Writing application : mkvmerge v11.0.0 (\'Alive\') 32bit
    Writing library : libebml v1.3.4 + libmatroska v1.4.5
    Video
    ID : 1
    Format : AVC
    Format/Info : Advanced Video Codec
    Format profile : High@L4.2
    Format settings, CABAC : Yes
    Format settings, RefFrames : 4 frames
    Codec ID : V_MPEG4/ISO/AVC
    Duration : 2 h 14 min
    Bit rate mode : Variable
    Bit rate : 15.1 Mb/s
    Maximum bit rate : 19.0 Mb/s
    Width : 1 920 pixels
    Height : 800 pixels
    Display aspect ratio : 2.40: 1
    Frame rate mode : Constant
    Frame rate : 59.940 (60000/1001) FPS
    Standard : NTSC
    Color space : YUV
    Chroma subsampling : 4: 2: 0
    Bit depth : 8 bits
    Scan type : Progressive
    Bits/(Pixel*Frame) : 0.164
    Stream size : 14.2 GiB (94%)
    Language : English
    Default : Yes
    Forced : No
    Color range : Limited
    Color primaries : BT.709
    Transfer characteristics : BT.709
    Matrix coefficients : BT.709
    Audio #1
    ID : 2
    Format : AC-3
    Format/Info : Audio Coding 3
    Format settings, Endianness : Big
    Codec ID : A_AC3
    Duration : 2 h 14 min
    Bit rate mode : Constant
    Bit rate : 384 kb/s
    Channel(s) : 6 channels
    Channel positions : Front: L C R, Side: L R, LFE
    Sampling rate : 48.0 kHz
    Frame rate : 31.250 FPS (1536 SPF)
    Bit depth : 16 bits
    Compression mode : Lossy
    Stream size : 370 MiB (2%)
    Title : iTunes
    Language : Russian
    Service kind : Complete Main
    Default : No
    Forced : No
    Audio #2
    ID : 3
    Format : AC-3
    Format/Info : Audio Coding 3
    Format settings, Endianness : Big
    Codec ID : A_AC3
    Duration : 2 h 14 min
    Bit rate mode : Constant
    Bit rate : 448 kb/s
    Channel(s) : 6 channels
    Channel positions : Front: L C R, Side: L R, LFE
    Sampling rate : 48.0 kHz
    Frame rate : 31.250 FPS (1536 SPF)
    Bit depth : 16 bits
    Compression mode : Lossy
    Stream size : 432 MiB (3%)
    Title : MVO ParadoxOmskbird
    Language : Russian
    Service kind : Complete Main
    Default : No
    Forced : No
    Audio #3
    ID : 4
    Format : AC-3
    Format/Info : Audio Coding 3
    Format settings, Endianness : Big
    Codec ID : A_AC3
    Duration : 2 h 12 min
    Bit rate mode : Constant
    Bit rate : 192 kb/s
    Channel(s) : 2 channels
    Channel positions : Front: L R
    Sampling rate : 48.0 kHz
    Frame rate : 31.250 FPS (1536 SPF)
    Bit depth : 16 bits
    Compression mode : Lossy
    Stream size : 182 MiB (1%)
    Title : AVO Chadov
    Language : Russian
    Service kind : Complete Main
    Default : No
    Forced : No
    Text #1
    ID : 5
    Format : UTF-8
    Codec ID : S_TEXT/UTF8
    Codec ID/Info : UTF-8 Plain Text
    Duration : 2 h 8 min
    Bit rate : 2 b/s
    Count of elements : 48
    Stream size : 2.16 KiB (0%)
    Title : Forced
    Language : Russian
    Default : Yes
    Forced : No
    Text #2
    ID : 6
    Format : UTF-8
    Codec ID : S_TEXT/UTF8
    Codec ID/Info : UTF-8 Plain Text
    Duration : 2 h 8 min
    Bit rate : 64 b/s
    Count of elements : 1209
    Stream size : 60.7 KiB (0%)
    Title : Full
    Language : Russian
    Default : No
    Forced : No
    Text #3
    ID : 7
    Format : UTF-8
    Codec ID : S_TEXT/UTF8
    Codec ID/Info : UTF-8 Plain Text
    Duration : 2 h 13 min
    Bit rate : 38 b/s
    Count of elements : 1383
    Stream size : 37.4 KiB (0%)
    Title : Full
    Language : English
    Default : No
    Forced : No
    Text #4
    ID : 8
    Format : UTF-8
    Codec ID : S_TEXT/UTF8
    Codec ID/Info : UTF-8 Plain Text
    Duration : 2 h 14 min
    Bit rate : 50 b/s
    Count of elements : 1838
    Stream size : 49.6 KiB (0%)
    Title : SDH
    Language : English
    Default : No
    Forced : No
    Menu
    00: 00: 00.000 : en: Chapter 1
    00: 09: 23.646 : en: Chapter 2
    00: 18: 31.860 : en: Chapter 3
    00: 28: 26.162 : en: Chapter 4
    00: 38: 36.981 : en: Chapter 5
    00: 48: 19.438 : en: Chapter 6
    00: 59: 30.775 : en: Chapter 7
    01: 08: 52.795 : en: Chapter 8
    01: 16: 58.822 : en: Chapter 9
    01: 26: 52.957 : en: Chapter 10
    01: 38: 15.306 : en: Chapter 11
    01: 48: 40.972 : en: Chapter 12
    02: 04: 07.898 : en: Chapter 13
    02: 09: 05.654 : en: Chapter 14

    Скриншоты для ознакомления



    Все одноименные релизы в Клубе
    Время раздачи: c 09: 00 до 23: 00 (до появления первых 3-5 скачавших)


    Оно/It (2017) BDRip [H.264/1080p] [hand made 60fps]
    Рейтинг →
     (голосов: 1, оценка 4/5, голосовать можно 1 раз )

    Другие торренты по теме:

  • Кин-дза-дза! (1986) BDRip [1080p] [hand made 60fps] (1986) BDRip
  • Стартрек: Возмездие / Star Trek Into Darkness (2013) BDRip [1080p] [IMAX] [hand made 60fps]
  • Иван Васильевич меняет профессию (1973) BDRip [1080p] [hand made 60fps]
  • Белое солнце пустыни (1969) BDRip [1080p] [hand made 60fps]
  • Грань будущего / Edge of Tomorrow (2014) BDRip [1080p] [hand made 60fps]
  • Грань будущего / Edge of Tomorrow (2014) BDRemux(BDRip) 3D [1080p] [3D / 2D] [hand made 16:9]
  • Годзилла / Godzilla (2014) BDRip [720p] [hand made 60fps]
  • The Beatles: Вечер трудного дня / A Hard Days Night (1964) BDRip [1080i] [hand made colored]


    • Комментарии (0):

      Информация

      Информация

        Посетители, находящиеся в группе Гости, не могут оставлять комментарии в данной новости.

        ↓ Меню




        ↓ Опрос

        Вы добавили сайт в закладки?
        Да
        Нет


        Top 10 за месяц (Другое)