.
Авторизация | Регистрация
Хочешь лучшие торренты? Добавь свой email!
Добавить

Торрент скачать бесплатно

» » Сборник клипов - Rap & Hip Hop от ALEXnROCK (2017) WEBRip [H.264 / 720p-LQ] (часть 3) торрент скачать бесплатно


    Сборник клипов - Rap & Hip Hop от ALEXnROCK (2017) WEBRip [H.264 / 720p-LQ] (часть 3) торрент скачать бесплатно

    Опубликовал: Админ | Дата: 16-01-2018, 05:00 | .torrent скачали: 0

    Сборник клипов - Rap & Hip Hop от ALEXnROCK (2017) WEBRip [H.264 / 720p-LQ] (часть 3)Название: Rap Hip Hop от ALEXnROCK
    Жанр: Rap, Hip hop
    Год выпуска: 2017
    Продолжительность: 03: 47: 45
    Доп. информация
    Я долго работал над этим сборником клипов. Перепахал много гектар видеоматериала и выбрал лучшее что есть в мировом рэпе. Исключил попадание сюда однообразной речетативной пурги, которой навалом в рэпе и хип-хопе. Это 3я часть сборника. Смотрите, слушайте и наслаждайтесь. Все лучшее для вас. ALEXnROCK
    Ремастеринг видео, звук заменил на CD
    Формат: MKV
    Качество: DVDRip
    Видео кодек : H264
    Видео : 1280x720 (16x9) 1280x888 (4x3) 25 fps (High@L4) 3400kbps
    Аудио : PCM 2.0, 48KHz, 1536kbps
    Треклист:
    000 Intro
    105 50 Cent - Candy Shop
    106 Лигалайз - Моя Москва
    107 Trick Trick Eminem - Welcome 2 Detroit
    108 Down Low - Once Upon A Time
    109 Coolio - Ooh La La
    110 Dino MC47 Севара Назархан - Гордость и Память
    111 Ice Cube feat. Krayzie Bone - Until We Rich
    112 MC Hammer - U Can\'t Touch This
    113 50 Cent - Disco Inferno
    114 Coolio ft 40 Thievz - C U When You Get There
    115 Баста - Ростов
    116 Sean Kingston feat. Juelz Santana - There\'s Nothing
    117 Nelly - Murphy Lee - Hold Up
    118 Ludacris - Get Back
    119 NANA - Lonely
    120 Bad Balance - Бит Стучит
    121 DMX feat. Sisqo - What These Bitches Want
    122 2Pac- How Do U Want It (Playboy)
    123 Rappers Against Racism - Sorry
    124 Ludacris feat. Sean Garrett Chris Brown - What Them G
    125 Децл - Письмо
    126 Trick Trick feat. Ice Cube - Let It Fly
    127 50 Cent - Position Of Power
    128 Nelly - Dilemma feat. Kelly Rowland
    129 Coolio - Too Hot
    130 Dino MC47- Главное верить
    131 2Pac ft. Snoop Dogg - 2 Of Amerikaz Most Wanted
    132 Eminem - Not Afraid
    133 Juelz Santana - Oh Yes bw Clockwork
    134 The Game 50 Cent - How We Do
    135 Децл - Легалайз
    136 Ice Cube - Nigga Trapp
    137 Down Low - So Long Goodbye
    138 Ludacris feat. Pharrell - Money Maker
    139 Coolio - Gangsta\'s Paradise
    140 Dino MC 47 - Москва Город Грозный
    141 Will Smith - Gettin\' Jiggy Wit It
    142 NANA - Let it rain
    143 50 Cent Ne-Yo - Baby By Me
    144 2Pac- I Ain\'t Mad At Cha
    145 Лигалайз - Жизнь
    146 Nelly - Stepped On My J\'z feat. Jermaine Dupri Ciara
    147 Cam\'ron feat. Juelz Santana - Hey Ma
    148 Ice Cube - It Was A Good Day
    149 R. Kelly Jay-Z - Fiesta
    150 Dino MC47 - Никто не забыт
    151 Fabolous feat. Nate Dogg - Can\'t Deny It
    152 Rappers Against Racism - Key To Your Heart
    153 Vanilla Ice - Ice Ice Baby
    154 Disturbing Tha Peace - Family Affair
    155 Down Low - Hit Me Right
    156 Dino MC47 - Уходи
    157 50 Cent - Straight To The Bank
    158 Warren G - I Shot The Sheriff

    Общее
    Уникальный идентификатор : 254880819778522880552763029784330267947 (0xBFC042A36C60686DA57F9D681FAC6D2B)
    Полное имя : Rap and Hip Hop from ALEXnROCK mkv (Disc 3)00 Intro.mkv
    Формат : Matroska
    Версия формата : Version 4/Version 2
    Размер файла : 39, 1 Мбайт
    Продолжительность : 1 м. 8 с.
    Общий поток : 4819 Кбит/сек
    Дата кодирования : UTC 2017-07-17 17: 48: 09
    Программа кодирования : mkvmerge v9.8.0 (\'Kuglblids\') 64bit
    Библиотека кодирования : libebml v1.3.4 + libmatroska v1.4.5
    Видео
    Идентификатор : 1
    Формат : AVC
    Формат/Информация : Advanced Video Codec
    Профиль формата : High@L4
    Настройки формата : CABAC/4 Ref Frames
    Параметр CABAC формата : Да
    Параметр RefFrames формата : 4 кадра
    Идентификатор кодека : V_MPEG4/ISO/AVC
    Продолжительность : 1 м. 8 с.
    Битрейт : 3400 Кбит/сек
    Ширина : 1280 пикселей
    Высота : 720 пикселей
    Соотношение сторон : 16: 9
    Режим частоты кадров : Постоянный
    Частота кадров : 29, 970 (30000/1001) кадров/сек
    Частота кадров в оригинале : 29, 970 (29970/1000) кадров/сек
    Цветовое пространство : YUV
    Субдискретизация насыщенности : 4: 2: 0
    Битовая глубина : 8 бит
    Тип развёртки : Прогрессивная
    Бит/(Пиксели*Кадры) : 0.123
    Размер потока : 26, 6 Мбайт (68%)
    Библиотека кодирования : x264 core 146 r2538 121396c
    Настройки программы : cabac=1/ref=3/deblock=1: -1: -1/analyse=0x3: 0x113/me=hex/subme=7/psy=1/psy_rd=1.00: 0.20/mixed_ref=1/me_range=16/chroma_me=1/trellis=1/8x8dct=1/cqm=0/deadzone=21, 11/fast_pskip=1/chroma_qp_offset=-3/threads=12/lookahead_threads=2/sliced_threads=0/nr=0/decimate=0/interlaced=0/bluray_compat=0/constrained_intra=0/bframes=3/b_pyramid=2/b_adapt=1/b_bias=0/direct=3/weightb=1/open_gop=0/weightp=2/keyint=250/keyint_min=25/scenecut=40/intra_refresh=0/rc_lookahead=40/rc=2pass/mbtree=1/bitrate=3400/ratetol=1.0/qcomp=0.60/qpmin=0/qpmax=69/qpstep=4/cplxblur=20.0/qblur=0.5/vbv_maxrate=14000/vbv_bufsize=14000/nal_hrd=none/filler=0/ip_ratio=1.40/aq=1: 1.00
    Default : Да
    Forced : Нет
    Аудио
    Идентификатор : 2
    Формат : PCM
    Идентификатор кодека : A_PCM/INT/LIT
    Продолжительность : 1 м. 7 с.
    Вид битрейта : Постоянный
    Битрейт : 1536 Кбит/сек
    Каналы : 2 канала
    Частота : 48, 0 КГц
    Частота кадров : 32, 006 кадра/сек (1500 SPF)
    Битовая глубина : 16 бит
    Размер потока : 12, 4 Мбайт (32%)
    Default : Да
    Forced : Нет
    Общее
    Уникальный идентификатор : 189131909635186490932527255445459204918 (0x8E497B170E4D7043B6D6BC3FF4CC7B36)
    Полное имя : E: Сборник Рэп и Хип-Хоп клиповRap and Hip Hop videoclips mkv (Disc 3)Rap and Hip Hop from ALEXnROCK mkv (Disc 3)105 50 Cent - Candy Shop.mkv
    Формат : Matroska
    Версия формата : Version 2
    Размер файла : 148 Мбайт
    Продолжительность : 4 м. 10 с.
    Общий поток : 4938 Кбит/сек
    Дата кодирования : UTC 2017-02-28 17: 01: 26
    Программа кодирования : mkvmerge v7.8.0 (\'River Man\') 32bit built on Apr 3 2015 12: 11: 22
    Библиотека кодирования : libebml v1.3.1 + libmatroska v1.4.2
    Видео
    Идентификатор : 1
    Формат : AVC
    Формат/Информация : Advanced Video Codec
    Профиль формата : High@L4
    Настройки формата : CABAC/4 Ref Frames
    Параметр CABAC формата : Да
    Параметр RefFrames формата : 4 кадра
    Идентификатор кодека : V_MPEG4/ISO/AVC
    Продолжительность : 4 м. 10 с.
    Номинальный битрейт : 3401 Кбит/сек
    Ширина : 1280 пикселей
    Высота : 888 пикселей
    Соотношение сторон : 1, 441
    Режим частоты кадров : Постоянный
    Частота кадров : 29, 970 (30000/1001) кадров/сек
    Цветовое пространство : YUV
    Субдискретизация насыщенности : 4: 2: 0
    Битовая глубина : 8 бит
    Тип развёртки : Прогрессивная
    Бит/(Пиксели*Кадры) : 0.100
    Библиотека кодирования : x264 core 146 r2538 121396c
    Настройки программы : cabac=1/ref=3/deblock=1: -1: -1/analyse=0x3: 0x113/me=hex/subme=7/psy=1/psy_rd=1.00: 0.20/mixed_ref=1/me_range=16/chroma_me=1/trellis=1/8x8dct=1/cqm=0/deadzone=21, 11/fast_pskip=1/chroma_qp_offset=-3/threads=12/lookahead_threads=2/sliced_threads=0/nr=0/decimate=0/interlaced=0/bluray_compat=0/constrained_intra=0/bframes=3/b_pyramid=2/b_adapt=1/b_bias=0/direct=3/weightb=1/open_gop=0/weightp=2/keyint=250/keyint_min=25/scenecut=40/intra_refresh=0/rc_lookahead=40/rc=2pass/mbtree=1/bitrate=3401/ratetol=1.0/qcomp=0.60/qpmin=0/qpmax=69/qpstep=4/cplxblur=20.0/qblur=0.5/vbv_maxrate=14000/vbv_bufsize=14000/nal_hrd=none/filler=0/ip_ratio=1.40/aq=1: 1.00
    Default : Да
    Forced : Нет
    Аудио
    Идентификатор : 2
    Формат : PCM
    Идентификатор кодека : A_PCM/INT/LIT
    Продолжительность : 4 м. 10 с.
    Вид битрейта : Постоянный
    Каналы : 2 канала
    Частота : 48, 0 КГц
    Битовая глубина : 16 бит
    Default : Да
    Forced : Нет
    Общее
    Уникальный идентификатор : 196443836829396446864068175347917771365 (0x93C9B4EF24272BBBA9231A844353D265)
    Полное имя : E: Сборник Рэп и Хип-Хоп клиповRap and Hip Hop videoclips mkv (Disc 3)Rap and Hip Hop from ALEXnROCK mkv (Disc 3)106 Лигалайз - Моя Москва.mkv
    Формат : Matroska
    Версия формата : Version 4/Version 2
    Размер файла : 130 Мбайт
    Продолжительность : 3 м. 40 с.
    Общий поток : 4943 Кбит/сек
    Дата кодирования : UTC 2017-04-28 16: 52: 37
    Программа кодирования : mkvmerge v9.8.0 (\'Kuglblids\') 64bit
    Библиотека кодирования : libebml v1.3.4 + libmatroska v1.4.5
    Видео
    Идентификатор : 1
    Формат : AVC
    Формат/Информация : Advanced Video Codec
    Профиль формата : High@L4
    Настройки формата : CABAC/4 Ref Frames
    Параметр CABAC формата : Да
    Параметр RefFrames формата : 4 кадра
    Идентификатор кодека : V_MPEG4/ISO/AVC
    Продолжительность : 3 м. 40 с.
    Битрейт : 3401 Кбит/сек
    Ширина : 1280 пикселей
    Высота : 816 пикселей
    Соотношение сторон : 16: 10
    Режим частоты кадров : Постоянный
    Частота кадров : 25, 000 кадров/сек
    Цветовое пространство : YUV
    Субдискретизация насыщенности : 4: 2: 0
    Битовая глубина : 8 бит
    Тип развёртки : Прогрессивная
    Бит/(Пиксели*Кадры) : 0.130
    Размер потока : 89, 6 Мбайт (69%)
    Библиотека кодирования : x264 core 146 r2538 121396c
    Настройки программы : cabac=1/ref=3/deblock=1: -1: -1/analyse=0x3: 0x113/me=hex/subme=7/psy=1/psy_rd=1.00: 0.20/mixed_ref=1/me_range=16/chroma_me=1/trellis=1/8x8dct=1/cqm=0/deadzone=21, 11/fast_pskip=1/chroma_qp_offset=-3/threads=12/lookahead_threads=2/sliced_threads=0/nr=0/decimate=0/interlaced=0/bluray_compat=0/constrained_intra=0/bframes=3/b_pyramid=2/b_adapt=1/b_bias=0/direct=3/weightb=1/open_gop=0/weightp=2/keyint=250/keyint_min=25/scenecut=40/intra_refresh=0/rc_lookahead=40/rc=2pass/mbtree=1/bitrate=3401/ratetol=1.0/qcomp=0.60/qpmin=0/qpmax=69/qpstep=4/cplxblur=20.0/qblur=0.5/vbv_maxrate=14000/vbv_bufsize=14000/nal_hrd=none/filler=0/ip_ratio=1.40/aq=1: 1.00
    Default : Да
    Forced : Нет
    Аудио
    Идентификатор : 2
    Формат : PCM
    Идентификатор кодека : A_PCM/INT/LIT
    Продолжительность : 3 м. 40 с.
    Вид битрейта : Постоянный
    Битрейт : 1536 Кбит/сек
    Каналы : 2 канала
    Частота : 48, 0 КГц
    Частота кадров : 32, 000 кадра/сек (1500 SPF)
    Битовая глубина : 16 бит
    Размер потока : 40, 4 Мбайт (31%)
    Default : Да
    Forced : Нет
    Общее
    Уникальный идентификатор : 185338117496028051361550142597784962844 (0x8B6ED2B23CED7FD0B3A9835BE6AC871C)
    Полное имя : E: Сборник Рэп и Хип-Хоп клиповRap and Hip Hop videoclips mkv (Disc 3)Rap and Hip Hop from ALEXnROCK mkv (Disc 3)107 Trick Trick Eminem - Welcome 2 Detroit.mkv
    Формат : Matroska
    Версия формата : Version 2
    Размер файла : 143 Мбайт
    Продолжительность : 4 м. 3 с.
    Общий поток : 4946 Кбит/сек
    Дата кодирования : UTC 2017-04-27 17: 02: 40
    Программа кодирования : mkvmerge v7.8.0 (\'River Man\') 32bit built on Apr 3 2015 12: 11: 22
    Библиотека кодирования : libebml v1.3.1 + libmatroska v1.4.2
    Видео
    Идентификатор : 1
    Формат : AVC
    Формат/Информация : Advanced Video Codec
    Профиль формата : High@L4
    Настройки формата : CABAC/4 Ref Frames
    Параметр CABAC формата : Да
    Параметр RefFrames формата : 4 кадра
    Идентификатор кодека : V_MPEG4/ISO/AVC
    Продолжительность : 4 м. 3 с.
    Номинальный битрейт : 3401 Кбит/сек
    Ширина : 1280 пикселей
    Высота : 680 пикселей
    Соотношение сторон : 1, 882
    Режим частоты кадров : Постоянный
    Частота кадров : 29, 970 (30000/1001) кадров/сек
    Цветовое пространство : YUV
    Субдискретизация насыщенности : 4: 2: 0
    Битовая глубина : 8 бит
    Тип развёртки : Прогрессивная
    Бит/(Пиксели*Кадры) : 0.130
    Библиотека кодирования : x264 core 146 r2538 121396c
    Настройки программы : cabac=1/ref=3/deblock=1: -1: -1/analyse=0x3: 0x113/me=hex/subme=7/psy=1/psy_rd=1.00: 0.20/mixed_ref=1/me_range=16/chroma_me=1/trellis=1/8x8dct=1/cqm=0/deadzone=21, 11/fast_pskip=1/chroma_qp_offset=-3/threads=12/lookahead_threads=2/sliced_threads=0/nr=0/decimate=0/interlaced=0/bluray_compat=0/constrained_intra=0/bframes=3/b_pyramid=2/b_adapt=1/b_bias=0/direct=3/weightb=1/open_gop=0/weightp=2/keyint=250/keyint_min=25/scenecut=40/intra_refresh=0/rc_lookahead=40/rc=2pass/mbtree=1/bitrate=3401/ratetol=1.0/qcomp=0.60/qpmin=0/qpmax=69/qpstep=4/cplxblur=20.0/qblur=0.5/vbv_maxrate=14000/vbv_bufsize=14000/nal_hrd=none/filler=0/ip_ratio=1.40/aq=1: 1.00
    Default : Да
    Forced : Нет
    Аудио
    Идентификатор : 2
    Формат : PCM
    Идентификатор кодека : A_PCM/INT/LIT
    Продолжительность : 4 м. 3 с.
    Вид битрейта : Постоянный
    Каналы : 2 канала
    Частота : 48, 0 КГц
    Битовая глубина : 16 бит
    Default : Да
    Forced : Нет
    Общее
    Уникальный идентификатор : 195493933137365900970352266461183544151 (0x9312C310F596F61986EB1269C5890B57)
    Полное имя : E: Сборник Рэп и Хип-Хоп клиповRap and Hip Hop videoclips mkv (Disc 3)Rap and Hip Hop from ALEXnROCK mkv (Disc 3)108 Down Low - Once Upon A Time.mkv
    Формат : Matroska
    Версия формата : Version 4/Version 2
    Размер файла : 131 Мбайт
    Продолжительность : 3 м. 43 с.
    Общий поток : 4934 Кбит/сек
    Дата кодирования : UTC 2017-04-28 21: 56: 36
    Программа кодирования : mkvmerge v9.8.0 (\'Kuglblids\') 64bit
    Библиотека кодирования : libebml v1.3.4 + libmatroska v1.4.5
    Видео
    Идентификатор : 1
    Формат : AVC
    Формат/Информация : Advanced Video Codec
    Профиль формата : High@L4
    Настройки формата : CABAC/4 Ref Frames
    Параметр CABAC формата : Да
    Параметр RefFrames формата : 4 кадра
    Идентификатор кодека : V_MPEG4/ISO/AVC
    Продолжительность : 3 м. 43 с.
    Битрейт : 3401 Кбит/сек
    Ширина : 1280 пикселей
    Высота : 624 пикселя
    Соотношение сторон : 2, 051
    Режим частоты кадров : Постоянный
    Частота кадров : 25, 000 кадров/сек
    Цветовое пространство : YUV
    Субдискретизация насыщенности : 4: 2: 0
    Битовая глубина : 8 бит
    Тип развёртки : Прогрессивная
    Бит/(Пиксели*Кадры) : 0.170
    Размер потока : 90, 6 Мбайт (69%)
    Библиотека кодирования : x264 core 146 r2538 121396c
    Настройки программы : cabac=1/ref=3/deblock=1: -1: -1/analyse=0x3: 0x113/me=hex/subme=7/psy=1/psy_rd=1.00: 0.20/mixed_ref=1/me_range=16/chroma_me=1/trellis=1/8x8dct=1/cqm=0/deadzone=21, 11/fast_pskip=1/chroma_qp_offset=-3/threads=12/lookahead_threads=2/sliced_threads=0/nr=0/decimate=0/interlaced=0/bluray_compat=0/constrained_intra=0/bframes=3/b_pyramid=2/b_adapt=1/b_bias=0/direct=3/weightb=1/open_gop=0/weightp=2/keyint=250/keyint_min=25/scenecut=40/intra_refresh=0/rc_lookahead=40/rc=2pass/mbtree=1/bitrate=3401/ratetol=1.0/qcomp=0.60/qpmin=0/qpmax=69/qpstep=4/cplxblur=20.0/qblur=0.5/vbv_maxrate=14000/vbv_bufsize=14000/nal_hrd=none/filler=0/ip_ratio=1.40/aq=1: 1.00
    Default : Да
    Forced : Нет
    Аудио
    Идентификатор : 2
    Формат : PCM
    Идентификатор кодека : A_PCM/INT/LIT
    Продолжительность : 3 м. 42 с.
    Вид битрейта : Постоянный
    Битрейт : 1536 Кбит/сек
    Каналы : 2 канала
    Частота : 48, 0 КГц
    Частота кадров : 32, 003 кадра/сек (1500 SPF)
    Битовая глубина : 16 бит
    Размер потока : 40, 8 Мбайт (31%)
    Default : Да
    Forced : Нет
    Общее
    Уникальный идентификатор : 244975968915357159734405109958626641062 (0xB84CA7C989109A21AC6D17865E0204A6)
    Полное имя : E: Сборник Рэп и Хип-Хоп клиповRap and Hip Hop videoclips mkv (Disc 3)Rap and Hip Hop from ALEXnROCK mkv (Disc 3)109 Coolio - Ooh La La.mkv
    Формат : Matroska
    Версия формата : Version 4/Version 2
    Размер файла : 160 Мбайт
    Продолжительность : 4 м. 31 с.
    Общий поток : 4936 Кбит/сек
    Дата кодирования : UTC 2017-04-28 11: 05: 47
    Программа кодирования : mkvmerge v9.8.0 (\'Kuglblids\') 64bit
    Библиотека кодирования : libebml v1.3.4 + libmatroska v1.4.5
    Видео
    Идентификатор : 1
    Формат : AVC
    Формат/Информация : Advanced Video Codec
    Профиль формата : High@L4
    Настройки формата : CABAC/4 Ref Frames
    Параметр CABAC формата : Да
    Параметр RefFrames формата : 4 кадра
    Идентификатор кодека : V_MPEG4/ISO/AVC
    Продолжительность : 4 м. 31 с.
    Битрейт : 3401 Кбит/сек
    Ширина : 1280 пикселей
    Высота : 888 пикселей
    Соотношение сторон : 1, 441
    Режим частоты кадров : Постоянный
    Частота кадров : 29, 970 (30000/1001) кадров/сек
    Цветовое пространство : YUV
    Субдискретизация насыщенности : 4: 2: 0
    Битовая глубина : 8 бит
    Тип развёртки : Прогрессивная
    Бит/(Пиксели*Кадры) : 0.100
    Размер потока : 110 Мбайт (69%)
    Библиотека кодирования : x264 core 146 r2538 121396c
    Настройки программы : cabac=1/ref=3/deblock=1: -1: -1/analyse=0x3: 0x113/me=hex/subme=7/psy=1/psy_rd=1.00: 0.20/mixed_ref=1/me_range=16/chroma_me=1/trellis=1/8x8dct=1/cqm=0/deadzone=21, 11/fast_pskip=1/chroma_qp_offset=-3/threads=12/lookahead_threads=2/sliced_threads=0/nr=0/decimate=0/interlaced=0/bluray_compat=0/constrained_intra=0/bframes=3/b_pyramid=2/b_adapt=1/b_bias=0/direct=3/weightb=1/open_gop=0/weightp=2/keyint=250/keyint_min=25/scenecut=40/intra_refresh=0/rc_lookahead=40/rc=2pass/mbtree=1/bitrate=3401/ratetol=1.0/qcomp=0.60/qpmin=0/qpmax=69/qpstep=4/cplxblur=20.0/qblur=0.5/vbv_maxrate=14000/vbv_bufsize=14000/nal_hrd=none/filler=0/ip_ratio=1.40/aq=1: 1.00
    Default : Да
    Forced : Нет
    Аудио
    Идентификатор : 2
    Формат : PCM
    Идентификатор кодека : A_PCM/INT/LIT
    Продолжительность : 4 м. 30 с.
    Вид битрейта : Постоянный
    Битрейт : 1536 Кбит/сек
    Каналы : 2 канала
    Частота : 48, 0 КГц
    Частота кадров : 32, 002 кадра/сек (1500 SPF)
    Битовая глубина : 16 бит
    Размер потока : 49, 5 Мбайт (31%)
    Default : Да
    Forced : Нет
    Общее
    Уникальный идентификатор : 200092989345364411694619989830425266303 (0x9688820B40F8F95D96E83F324ED2487F)
    Полное имя : E: Сборник Рэп и Хип-Хоп клиповRap and Hip Hop videoclips mkv (Disc 3)Rap and Hip Hop from ALEXnROCK mkv (Disc 3)110 Dino MC47 Севара Назархан - Гордость и Память.mkv
    Формат : Matroska
    Версия формата : Version 4/Version 2
    Размер файла : 122 Мбайт
    Продолжительность : 3 м. 27 с.
    Общий поток : 4936 Кбит/сек
    Дата кодирования : UTC 2017-05-05 11: 36: 44
    Программа кодирования : mkvmerge v9.8.0 (\'Kuglblids\') 64bit
    Библиотека кодирования : libebml v1.3.4 + libmatroska v1.4.5
    Видео
    Идентификатор : 1
    Формат : AVC
    Формат/Информация : Advanced Video Codec
    Профиль формата : High@L4
    Настройки формата : CABAC/4 Ref Frames
    Параметр CABAC формата : Да
    Параметр RefFrames формата : 4 кадра
    Идентификатор кодека : V_MPEG4/ISO/AVC
    Продолжительность : 3 м. 27 с.
    Битрейт : 3401 Кбит/сек
    Ширина : 1280 пикселей
    Высота : 720 пикселей
    Соотношение сторон : 16: 9
    Режим частоты кадров : Постоянный
    Частота кадров : 25, 000 кадров/сек
    Цветовое пространство : YUV
    Субдискретизация насыщенности : 4: 2: 0
    Битовая глубина : 8 бит
    Тип развёртки : Прогрессивная
    Бит/(Пиксели*Кадры) : 0.148
    Размер потока : 84, 0 Мбайт (69%)
    Библиотека кодирования : x264 core 146 r2538 121396c
    Настройки программы : cabac=1/ref=3/deblock=1: -1: -1/analyse=0x3: 0x113/me=hex/subme=7/psy=1/psy_rd=1.00: 0.20/mixed_ref=1/me_range=16/chroma_me=1/trellis=1/8x8dct=1/cqm=0/deadzone=21, 11/fast_pskip=1/chroma_qp_offset=-3/threads=12/lookahead_threads=2/sliced_threads=0/nr=0/decimate=0/interlaced=0/bluray_compat=0/constrained_intra=0/bframes=3/b_pyramid=2/b_adapt=1/b_bias=0/direct=3/weightb=1/open_gop=0/weightp=2/keyint=250/keyint_min=25/scenecut=40/intra_refresh=0/rc_lookahead=40/rc=2pass/mbtree=1/bitrate=3401/ratetol=1.0/qcomp=0.60/qpmin=0/qpmax=69/qpstep=4/cplxblur=20.0/qblur=0.5/vbv_maxrate=14000/vbv_bufsize=14000/nal_hrd=none/filler=0/ip_ratio=1.40/aq=1: 1.00
    Default : Да
    Forced : Нет
    Аудио
    Идентификатор : 2
    Формат : PCM
    Идентификатор кодека : A_PCM/INT/LIT
    Продолжительность : 3 м. 27 с.
    Вид битрейта : Постоянный
    Битрейт : 1536 Кбит/сек
    Каналы : 2 канала
    Частота : 48, 0 КГц
    Частота кадров : 32, 002 кадра/сек (1500 SPF)
    Битовая глубина : 16 бит
    Размер потока : 38, 0 Мбайт (31%)
    Default : Да
    Forced : Нет
    Общее
    Уникальный идентификатор : 220959026695707546596099311096680874196 (0xA63B291D0E0C29B68D0BCCCF10FB00D4)
    Полное имя : E: Сборник Рэп и Хип-Хоп клиповRap and Hip Hop videoclips mkv (Disc 3)Rap and Hip Hop from ALEXnROCK mkv (Disc 3)111 Ice Cube feat. Krayzie Bone - Until We Rich.mkv
    Формат : Matroska
    Версия формата : Version 2
    Размер файла : 153 Мбайт
    Продолжительность : 4 м. 19 с.
    Общий поток : 4944 Кбит/сек
    Дата кодирования : UTC 2017-04-27 19: 46: 53
    Программа кодирования : mkvmerge v7.8.0 (\'River Man\') 32bit built on Apr 3 2015 12: 11: 22
    Библиотека кодирования : libebml v1.3.1 + libmatroska v1.4.2
    Видео
    Идентификатор : 1
    Формат : AVC
    Формат/Информация : Advanced Video Codec
    Профиль формата : High@L4
    Настройки формата : CABAC/4 Ref Frames
    Параметр CABAC формата : Да
    Параметр RefFrames формата : 4 кадра
    Идентификатор кодека : V_MPEG4/ISO/AVC
    Продолжительность : 4 м. 19 с.
    Номинальный битрейт : 3401 Кбит/сек
    Ширина : 1280 пикселей
    Высота : 896 пикселей
    Соотношение сторон : 1, 429
    Режим частоты кадров : Постоянный
    Частота кадров : 29, 970 (30000/1001) кадров/сек
    Цветовое пространство : YUV
    Субдискретизация насыщенности : 4: 2: 0
    Битовая глубина : 8 бит
    Тип развёртки : Прогрессивная
    Бит/(Пиксели*Кадры) : 0.099
    Библиотека кодирования : x264 core 146 r2538 121396c
    Настройки программы : cabac=1/ref=3/deblock=1: -1: -1/analyse=0x3: 0x113/me=hex/subme=7/psy=1/psy_rd=1.00: 0.20/mixed_ref=1/me_range=16/chroma_me=1/trellis=1/8x8dct=1/cqm=0/deadzone=21, 11/fast_pskip=1/chroma_qp_offset=-3/threads=12/lookahead_threads=2/sliced_threads=0/nr=0/decimate=0/interlaced=0/bluray_compat=0/constrained_intra=0/bframes=3/b_pyramid=2/b_adapt=1/b_bias=0/direct=3/weightb=1/open_gop=0/weightp=2/keyint=250/keyint_min=25/scenecut=40/intra_refresh=0/rc_lookahead=40/rc=2pass/mbtree=1/bitrate=3401/ratetol=1.0/qcomp=0.60/qpmin=0/qpmax=69/qpstep=4/cplxblur=20.0/qblur=0.5/vbv_maxrate=14000/vbv_bufsize=14000/nal_hrd=none/filler=0/ip_ratio=1.40/aq=1: 1.00
    Default : Да
    Forced : Нет
    Аудио
    Идентификатор : 2
    Формат : PCM
    Идентификатор кодека : A_PCM/INT/LIT
    Продолжительность : 4 м. 19 с.
    Вид битрейта : Постоянный
    Каналы : 2 канала
    Частота : 48, 0 КГц
    Битовая глубина : 16 бит
    Default : Да
    Forced : Нет
    Общее
    Уникальный идентификатор : 212755471710940877564006147718031300658 (0xA00F36A012E86D10ACADBD29F3DF5832)
    Полное имя : E: Сборник Рэп и Хип-Хоп клиповRap and Hip Hop videoclips mkv (Disc 3)Rap and Hip Hop from ALEXnROCK mkv (Disc 3)112 MC Hammer - U Can\'t Touch This.mkv
    Формат : Matroska
    Версия формата : Version 4/Version 2
    Размер файла : 159 Мбайт
    Продолжительность : 4 м. 29 с.
    Общий поток : 4937 Кбит/сек
    Дата кодирования : UTC 2017-04-28 09: 26: 17
    Программа кодирования : mkvmerge v9.8.0 (\'Kuglblids\') 64bit
    Библиотека кодирования : libebml v1.3.4 + libmatroska v1.4.5
    Видео
    Идентификатор : 1
    Формат : AVC
    Формат/Информация : Advanced Video Codec
    Профиль формата : High@L4
    Настройки формата : CABAC/4 Ref Frames
    Параметр CABAC формата : Да
    Параметр RefFrames формата : 4 кадра
    Идентификатор кодека : V_MPEG4/ISO/AVC
    Продолжительность : 4 м. 29 с.
    Битрейт : 3401 Кбит/сек
    Ширина : 1280 пикселей
    Высота : 888 пикселей
    Соотношение сторон : 1, 441
    Режим частоты кадров : Постоянный
    Частота кадров : 29, 970 (30000/1001) кадров/сек
    Цветовое пространство : YUV
    Субдискретизация насыщенности : 4: 2: 0
    Битовая глубина : 8 бит
    Тип развёртки : Прогрессивная
    Бит/(Пиксели*Кадры) : 0.100
    Размер потока : 109 Мбайт (69%)
    Библиотека кодирования : x264 core 146 r2538 121396c
    Настройки программы : cabac=1/ref=3/deblock=1: -1: -1/analyse=0x3: 0x113/me=hex/subme=7/psy=1/psy_rd=1.00: 0.20/mixed_ref=1/me_range=16/chroma_me=1/trellis=1/8x8dct=1/cqm=0/deadzone=21, 11/fast_pskip=1/chroma_qp_offset=-3/threads=12/lookahead_threads=2/sliced_threads=0/nr=0/decimate=0/interlaced=0/bluray_compat=0/constrained_intra=0/bframes=3/b_pyramid=2/b_adapt=1/b_bias=0/direct=3/weightb=1/open_gop=0/weightp=2/keyint=250/keyint_min=25/scenecut=40/intra_refresh=0/rc_lookahead=40/rc=2pass/mbtree=1/bitrate=3401/ratetol=1.0/qcomp=0.60/qpmin=0/qpmax=69/qpstep=4/cplxblur=20.0/qblur=0.5/vbv_maxrate=14000/vbv_bufsize=14000/nal_hrd=none/filler=0/ip_ratio=1.40/aq=1: 1.00
    Default : Да
    Forced : Нет
    Аудио
    Идентификатор : 2
    Формат : PCM
    Идентификатор кодека : A_PCM/INT/LIT
    Продолжительность : 4 м. 28 с.
    Вид битрейта : Постоянный
    Битрейт : 1536 Кбит/сек
    Каналы : 2 канала
    Частота : 48, 0 КГц
    Частота кадров : 32, 003 кадра/сек (1500 SPF)
    Битовая глубина : 16 бит
    Размер потока : 49, 3 Мбайт (31%)
    Default : Да
    Forced : Нет
    Общее
    Уникальный идентификатор : 230360967883300588538430877518596083014 (0xAD4DE89A6EA0EA75977FF7AFC1470D46)
    Полное имя : E: Сборник Рэп и Хип-Хоп клиповRap and Hip Hop videoclips mkv (Disc 3)Rap and Hip Hop from ALEXnROCK mkv (Disc 3)113 50 Cent - Disco Inferno.mkv
    Формат : Matroska
    Версия формата : Version 2
    Размер файла : 126 Мбайт
    Продолжительность : 3 м. 33 с.
    Общий поток : 4939 Кбит/сек
    Дата кодирования : UTC 2017-04-27 22: 08: 17
    Программа кодирования : mkvmerge v7.8.0 (\'River Man\') 32bit built on Apr 3 2015 12: 11: 22
    Библиотека кодирования : libebml v1.3.1 + libmatroska v1.4.2
    Видео
    Идентификатор : 1
    Формат : AVC
    Формат/Информация : Advanced Video Codec
    Профиль формата : High@L4
    Настройки формата : CABAC/4 Ref Frames
    Параметр CABAC формата : Да
    Параметр RefFrames формата : 4 кадра
    Идентификатор кодека : V_MPEG4/ISO/AVC
    Продолжительность : 3 м. 33 с.
    Номинальный битрейт : 3401 Кбит/сек
    Ширина : 1280 пикселей
    Высота : 896 пикселей
    Соотношение сторон : 1, 429
    Режим частоты кадров : Постоянный
    Частота кадров : 29, 970 (30000/1001) кадров/сек
    Цветовое пространство : YUV
    Субдискретизация насыщенности : 4: 2: 0
    Битовая глубина : 8 бит
    Тип развёртки : Прогрессивная
    Бит/(Пиксели*Кадры) : 0.099
    Библиотека кодирования : x264 core 146 r2538 121396c
    Настройки программы : cabac=1/ref=3/deblock=1: -1: -1/analyse=0x3: 0x113/me=hex/subme=7/psy=1/psy_rd=1.00: 0.20/mixed_ref=1/me_range=16/chroma_me=1/trellis=1/8x8dct=1/cqm=0/deadzone=21, 11/fast_pskip=1/chroma_qp_offset=-3/threads=12/lookahead_threads=2/sliced_threads=0/nr=0/decimate=0/interlaced=0/bluray_compat=0/constrained_intra=0/bframes=3/b_pyramid=2/b_adapt=1/b_bias=0/direct=3/weightb=1/open_gop=0/weightp=2/keyint=250/keyint_min=25/scenecut=40/intra_refresh=0/rc_lookahead=40/rc=2pass/mbtree=1/bitrate=3401/ratetol=1.0/qcomp=0.60/qpmin=0/qpmax=69/qpstep=4/cplxblur=20.0/qblur=0.5/vbv_maxrate=14000/vbv_bufsize=14000/nal_hrd=none/filler=0/ip_ratio=1.40/aq=1: 1.00
    Default : Да
    Forced : Нет
    Аудио
    Идентификатор : 2
    Формат : PCM
    Идентификатор кодека : A_PCM/INT/LIT
    Продолжительность : 3 м. 33 с.
    Вид битрейта : Постоянный
    Каналы : 2 канала
    Частота : 48, 0 КГц
    Битовая глубина : 16 бит
    Default : Да
    Forced : Нет
    Общее
    Уникальный идентификатор : 197718257551987059813990512549063042227 (0x94BF26BA1951F23A98D3F7D892EC24B3)
    Полное имя : E: Сборник Рэп и Хип-Хоп клиповRap and Hip Hop videoclips mkv (Disc 3)Rap and Hip Hop from ALEXnROCK mkv (Disc 3)114 Coolio ft 40 Thievz - C U When You Get There.mkv
    Формат : Matroska
    Версия формата : Version 4/Version 2
    Размер файла : 157 Мбайт
    Продолжительность : 4 м. 26 с.
    Общий поток : 4943 Кбит/сек
    Дата кодирования : UTC 2017-04-28 18: 49: 41
    Программа кодирования : mkvmerge v9.8.0 (\'Kuglblids\') 64bit
    Библиотека кодирования : libebml v1.3.4 + libmatroska v1.4.5
    Видео
    Идентификатор : 1
    Формат : AVC
    Формат/Информация : Advanced Video Codec
    Профиль формата : High@L4
    Настройки формата : CABAC/4 Ref Frames
    Параметр CABAC формата : Да
    Параметр RefFrames формата : 4 кадра
    Идентификатор кодека : V_MPEG4/ISO/AVC
    Продолжительность : 4 м. 26 с.
    Битрейт : 3401 Кбит/сек
    Ширина : 1280 пикселей
    Высота : 712 пикселей
    Соотношение сторон : 16: 9
    Режим частоты кадров : Постоянный
    Частота кадров : 29, 970 (30000/1001) кадров/сек
    Цветовое пространство : YUV
    Субдискретизация насыщенности : 4: 2: 0
    Битовая глубина : 8 бит
    Тип развёртки : Прогрессивная
    Бит/(Пиксели*Кадры) : 0.125
    Размер потока : 108 Мбайт (69%)
    Библиотека кодирования : x264 core 146 r2538 121396c
    Настройки программы : cabac=1/ref=3/deblock=1: -1: -1/analyse=0x3: 0x113/me=hex/subme=7/psy=1/psy_rd=1.00: 0.20/mixed_ref=1/me_range=16/chroma_me=1/trellis=1/8x8dct=1/cqm=0/deadzone=21, 11/fast_pskip=1/chroma_qp_offset=-3/threads=12/lookahead_threads=2/sliced_threads=0/nr=0/decimate=0/interlaced=0/bluray_compat=0/constrained_intra=0/bframes=3/b_pyramid=2/b_adapt=1/b_bias=0/direct=3/weightb=1/open_gop=0/weightp=2/keyint=250/keyint_min=25/scenecut=40/intra_refresh=0/rc_lookahead=40/rc=2pass/mbtree=1/bitrate=3401/ratetol=1.0/qcomp=0.60/qpmin=0/qpmax=69/qpstep=4/cplxblur=20.0/qblur=0.5/vbv_maxrate=14000/vbv_bufsize=14000/nal_hrd=none/filler=0/ip_ratio=1.40/aq=1: 1.00
    Default : Да
    Forced : Нет
    Аудио
    Идентификатор : 2
    Формат : PCM
    Идентификатор кодека : A_PCM/INT/LIT
    Продолжительность : 4 м. 26 с.
    Вид битрейта : Постоянный
    Битрейт : 1536 Кбит/сек
    Каналы : 2 канала
    Частота : 48, 0 КГц
    Частота кадров : 32, 003 кадра/сек (1500 SPF)
    Битовая глубина : 16 бит
    Размер потока : 48, 7 Мбайт (31%)
    Default : Да
    Forced : Нет
    Общее
    Уникальный идентификатор : 230255758132725496884912101121490538736 (0xAD39A55CAFD9A908944F8A30A1FDD0F0)
    Полное имя : E: Сборник Рэп и Хип-Хоп клиповRap and Hip Hop videoclips mkv (Disc 3)Rap and Hip Hop from ALEXnROCK mkv (Disc 3)115 Баста - Ростов.mkv
    Формат : Matroska
    Версия формата : Version 4/Version 2
    Размер файла : 160 Мбайт
    Продолжительность : 4 м. 31 с.
    Общий поток : 4939 Кбит/сек
    Дата кодирования : UTC 2017-05-05 13: 00: 22
    Программа кодирования : mkvmerge v9.8.0 (\'Kuglblids\') 64bit
    Библиотека кодирования : libebml v1.3.4 + libmatroska v1.4.5
    Видео
    Идентификатор : 1
    Формат : AVC
    Формат/Информация : Advanced Video Codec
    Профиль формата : High@L4
    Настройки формата : CABAC/4 Ref Frames
    Параметр CABAC формата : Да
    Параметр RefFrames формата : 4 кадра
    Идентификатор кодека : V_MPEG4/ISO/AVC
    Продолжительность : 4 м. 31 с.
    Битрейт : 3401 Кбит/сек
    Ширина : 1280 пикселей
    Высота : 640 пикселей
    Соотношение сторон : 2, 000
    Режим частоты кадров : Постоянный
    Частота кадров : 25, 000 кадров/сек
    Цветовое пространство : YUV
    Субдискретизация насыщенности : 4: 2: 0
    Битовая глубина : 8 бит
    Тип развёртки : Прогрессивная
    Бит/(Пиксели*Кадры) : 0.166
    Размер потока : 110 Мбайт (69%)
    Библиотека кодирования : x264 core 146 r2538 121396c
    Настройки программы : cabac=1/ref=3/deblock=1: -1: -1/analyse=0x3: 0x113/me=hex/subme=7/psy=1/psy_rd=1.00: 0.20/mixed_ref=1/me_range=16/chroma_me=1/trellis=1/8x8dct=1/cqm=0/deadzone=21, 11/fast_pskip=1/chroma_qp_offset=-3/threads=12/lookahead_threads=2/sliced_threads=0/nr=0/decimate=0/interlaced=0/bluray_compat=0/constrained_intra=0/bframes=3/b_pyramid=2/b_adapt=1/b_bias=0/direct=3/weightb=1/open_gop=0/weightp=2/keyint=250/keyint_min=25/scenecut=40/intra_refresh=0/rc_lookahead=40/rc=2pass/mbtree=1/bitrate=3401/ratetol=1.0/qcomp=0.60/qpmin=0/qpmax=69/qpstep=4/cplxblur=20.0/qblur=0.5/vbv_maxrate=14000/vbv_bufsize=14000/nal_hrd=none/filler=0/ip_ratio=1.40/aq=1: 1.00
    Default : Да
    Forced : Нет
    Аудио
    Идентификатор : 2
    Формат : PCM
    Идентификатор кодека : A_PCM/INT/LIT
    Продолжительность : 4 м. 31 с.
    Вид битрейта : Постоянный
    Битрейт : 1536 Кбит/сек
    Каналы : 2 канала
    Частота : 48, 0 КГц
    Частота кадров : 32, 003 кадра/сек (1500 SPF)
    Битовая глубина : 16 бит
    Размер потока : 49, 7 Мбайт (31%)
    Default : Да
    Forced : Нет
    Общее
    Уникальный идентификатор : 226972370196967701671461321306113115631 (0xAAC149D69EAC4E60B158DFE4446D05EF)
    Полное имя : E: Сборник Рэп и Хип-Хоп клиповRap and Hip Hop videoclips mkv (Disc 3)Rap and Hip Hop from ALEXnROCK mkv (Disc 3)116 Sean Kingston feat. Juelz Santana - There\'s Nothing.mkv
    Формат : Matroska
    Версия формата : Version 2
    Размер файла : 132 Мбайт
    Продолжительность : 3 м. 43 с.
    Общий поток : 4942 Кбит/сек
    Дата кодирования : UTC 2017-04-28 20: 51: 47
    Программа кодирования : mkvmerge v7.8.0 (\'River Man\') 32bit built on Apr 3 2015 12: 11: 22
    Библиотека кодирования : libebml v1.3.1 + libmatroska v1.4.2
    Видео
    Идентификатор : 1
    Формат : AVC
    Формат/Информация : Advanced Video Codec
    Профиль формата : High@L4
    Настройки формата : CABAC/4 Ref Frames
    Параметр CABAC формата : Да
    Параметр RefFrames формата : 4 кадра
    Идентификатор кодека : V_MPEG4/ISO/AVC
    Продолжительность : 3 м. 43 с.
    Номинальный битрейт : 3401 Кбит/сек
    Ширина : 1280 пикселей
    Высота : 608 пикселей
    Соотношение сторон : 2, 105
    Режим частоты кадров : Постоянный
    Частота кадров : 25, 000 кадров/сек
    Цветовое пространство : YUV
    Субдискретизация насыщенности : 4: 2: 0
    Битовая глубина : 8 бит
    Тип развёртки : Прогрессивная
    Бит/(Пиксели*Кадры) : 0.175
    Библиотека кодирования : x264 core 146 r2538 121396c
    Настройки программы : cabac=1/ref=3/deblock=1: -1: -1/analyse=0x3: 0x113/me=hex/subme=7/psy=1/psy_rd=1.00: 0.20/mixed_ref=1/me_range=16/chroma_me=1/trellis=1/8x8dct=1/cqm=0/deadzone=21, 11/fast_pskip=1/chroma_qp_offset=-3/threads=12/lookahead_threads=2/sliced_threads=0/nr=0/decimate=0/interlaced=0/bluray_compat=0/constrained_intra=0/bframes=3/b_pyramid=2/b_adapt=1/b_bias=0/direct=3/weightb=1/open_gop=0/weightp=2/keyint=250/keyint_min=25/scenecut=40/intra_refresh=0/rc_lookahead=40/rc=2pass/mbtree=1/bitrate=3401/ratetol=1.0/qcomp=0.60/qpmin=0/qpmax=69/qpstep=4/cplxblur=20.0/qblur=0.5/vbv_maxrate=14000/vbv_bufsize=14000/nal_hrd=none/filler=0/ip_ratio=1.40/aq=1: 1.00
    Default : Да
    Forced : Нет
    Аудио
    Идентификатор : 2
    Формат : PCM
    Идентификатор кодека : A_PCM/INT/LIT
    Продолжительность : 3 м. 43 с.
    Вид битрейта : Постоянный
    Каналы : 2 канала
    Частота : 48, 0 КГц
    Битовая глубина : 16 бит
    Default : Да
    Forced : Нет
    Общее
    Уникальный идентификатор : 189736690844123162276571134996549150054 (0x8EBDF51B16423C25B978B111F02B2566)
    Полное имя : E: Сборник Рэп и Хип-Хоп клиповRap and Hip Hop videoclips mkv (Disc 3)Rap and Hip Hop from ALEXnROCK mkv (Disc 3)117 Nelly - Murphy Lee - Hold Up.mkv
    Формат : Matroska
    Версия формата : Version 2
    Размер файла : 154 Мбайт
    Продолжительность : 4 м. 20 с.
    Общий поток : 4950 Кбит/сек
    Дата кодирования : UTC 2017-04-28 23: 45: 24
    Программа кодирования : mkvmerge v7.8.0 (\'River Man\') 32bit built on Apr 3 2015 12: 11: 22
    Библиотека кодирования : libebml v1.3.1 + libmatroska v1.4.2
    Видео
    Идентификатор : 1
    Формат : AVC
    Формат/Информация : Advanced Video Codec
    Профиль формата : High@L4
    Настройки формата : CABAC/4 Ref Frames
    Параметр CABAC формата : Да
    Параметр RefFrames формата : 4 кадра
    Идентификатор кодека : V_MPEG4/ISO/AVC
    Продолжительность : 4 м. 20 с.
    Номинальный битрейт : 3401 Кбит/сек
    Ширина : 1280 пикселей
    Высота : 888 пикселей
    Соотношение сторон : 1, 441
    Режим частоты кадров : Постоянный
    Частота кадров : 29, 970 (30000/1001) кадров/сек
    Цветовое пространство : YUV
    Субдискретизация насыщенности : 4: 2: 0
    Битовая глубина : 8 бит
    Тип развёртки : Прогрессивная
    Бит/(Пиксели*Кадры) : 0.100
    Библиотека кодирования : x264 core 146 r2538 121396c
    Настройки программы : cabac=1/ref=3/deblock=1: -1: -1/analyse=0x3: 0x113/me=hex/subme=7/psy=1/psy_rd=1.00: 0.20/mixed_ref=1/me_range=16/chroma_me=1/trellis=1/8x8dct=1/cqm=0/deadzone=21, 11/fast_pskip=1/chroma_qp_offset=-3/threads=12/lookahead_threads=2/sliced_threads=0/nr=0/decimate=0/interlaced=0/bluray_compat=0/constrained_intra=0/bframes=3/b_pyramid=2/b_adapt=1/b_bias=0/direct=3/weightb=1/open_gop=0/weightp=2/keyint=250/keyint_min=25/scenecut=40/intra_refresh=0/rc_lookahead=40/rc=2pass/mbtree=1/bitrate=3401/ratetol=1.0/qcomp=0.60/qpmin=0/qpmax=69/qpstep=4/cplxblur=20.0/qblur=0.5/vbv_maxrate=14000/vbv_bufsize=14000/nal_hrd=none/filler=0/ip_ratio=1.40/aq=1: 1.00
    Default : Да
    Forced : Нет
    Аудио
    Идентификатор : 2
    Формат : PCM
    Идентификатор кодека : A_PCM/INT/LIT
    Продолжительность : 4 м. 20 с.
    Вид битрейта : Постоянный
    Каналы : 2 канала
    Частота : 48, 0 КГц
    Битовая глубина : 16 бит
    Default : Да
    Forced : Нет
    Общее
    Уникальный идентификатор : 178962487000077547429432855109929117673 (0x86A2EBD7ED8165D68C53391539FDA7E9)
    Полное имя : E: Сборник Рэп и Хип-Хоп клиповRap and Hip Hop videoclips mkv (Disc 3)Rap and Hip Hop from ALEXnROCK mkv (Disc 3)118 Ludacris - Get Back.mkv
    Формат : Matroska
    Версия формата : Version 4/Version 2
    Размер файла : 206 Мбайт
    Продолжительность : 5 м. 49 с.
    Общий поток : 4944 Кбит/сек
    Дата кодирования : UTC 2017-04-29 20: 26: 03
    Программа кодирования : mkvmerge v9.8.0 (\'Kuglblids\') 64bit
    Библиотека кодирования : libebml v1.3.4 + libmatroska v1.4.5
    Видео
    Идентификатор : 1
    Формат : AVC
    Формат/Информация : Advanced Video Codec
    Профиль формата : High@L4
    Настройки формата : CABAC/4 Ref Frames
    Параметр CABAC формата : Да
    Параметр RefFrames формата : 4 кадра
    Идентификатор кодека : V_MPEG4/ISO/AVC
    Продолжительность : 5 м. 49 с.
    Битрейт : 3401 Кбит/сек
    Ширина : 1280 пикселей
    Высота : 704 пикселя
    Соотношение сторон : 16: 9
    Режим частоты кадров : Постоянный
    Частота кадров : 29, 970 (30000/1001) кадров/сек
    Цветовое пространство : YUV
    Субдискретизация насыщенности : 4: 2: 0
    Битовая глубина : 8 бит
    Тип развёртки : Прогрессивная
    Бит/(Пиксели*Кадры) : 0.126
    Размер потока : 142 Мбайт (69%)
    Библиотека кодирования : x264 core 146 r2538 121396c
    Настройки программы : cabac=1/ref=3/deblock=1: -1: -1/analyse=0x3: 0x113/me=hex/subme=7/psy=1/psy_rd=1.00: 0.20/mixed_ref=1/me_range=16/chroma_me=1/trellis=1/8x8dct=1/cqm=0/deadzone=21, 11/fast_pskip=1/chroma_qp_offset=-3/threads=12/lookahead_threads=2/sliced_threads=0/nr=0/decimate=0/interlaced=0/bluray_compat=0/constrained_intra=0/bframes=3/b_pyramid=2/b_adapt=1/b_bias=0/direct=3/weightb=1/open_gop=0/weightp=2/keyint=250/keyint_min=25/scenecut=40/intra_refresh=0/rc_lookahead=40/rc=2pass/mbtree=1/bitrate=3401/ratetol=1.0/qcomp=0.60/qpmin=0/qpmax=69/qpstep=4/cplxblur=20.0/qblur=0.5/vbv_maxrate=14000/vbv_bufsize=14000/nal_hrd=none/filler=0/ip_ratio=1.40/aq=1: 1.00
    Default : Да
    Forced : Нет
    Аудио
    Идентификатор : 2
    Формат : PCM
    Идентификатор кодека : A_PCM/INT/LIT
    Продолжительность : 5 м. 49 с.
    Вид битрейта : Постоянный
    Битрейт : 1536 Кбит/сек
    Каналы : 2 канала
    Частота : 48, 0 КГц
    Частота кадров : 32, 001 кадра/сек (1500 SPF)
    Битовая глубина : 16 бит
    Размер потока : 64, 1 Мбайт (31%)
    Default : Да
    Forced : Нет
    Общее
    Уникальный идентификатор : 190722195061158092390240179899961725020 (0x8F7BC2371122C7C688FB25D51D40505C)
    Полное имя : E: Сборник Рэп и Хип-Хоп клиповRap and Hip Hop videoclips mkv (Disc 3)Rap and Hip Hop from ALEXnROCK mkv (Disc 3)119 NANA - Lonely.mkv
    Формат : Matroska
    Версия формата : Version 4/Version 2
    Размер файла : 134 Мбайт
    Продолжительность : 3 м. 47 с.
    Общий поток : 4942 Кбит/сек
    Дата кодирования : UTC 2017-04-29 15: 54: 19
    Программа кодирования : mkvmerge v9.8.0 (\'Kuglblids\') 64bit
    Библиотека кодирования : libebml v1.3.4 + libmatroska v1.4.5
    Видео
    Идентификатор : 1
    Формат : AVC
    Формат/Информация : Advanced Video Codec
    Профиль формата : High@L4
    Настройки формата : CABAC/4 Ref Frames
    Параметр CABAC формата : Да
    Параметр RefFrames формата : 4 кадра
    Идентификатор кодека : V_MPEG4/ISO/AVC
    Продолжительность : 3 м. 46 с.
    Битрейт : 3401 Кбит/сек
    Ширина : 1280 пикселей
    Высота : 720 пикселей
    Соотношение сторон : 16: 9
    Режим частоты кадров : Постоянный
    Частота кадров : 25, 000 кадров/сек
    Цветовое пространство : YUV
    Субдискретизация насыщенности : 4: 2: 0
    Битовая глубина : 8 бит
    Тип развёртки : Прогрессивная
    Бит/(Пиксели*Кадры) : 0.148
    Размер потока : 92, 2 Мбайт (69%)
    Библиотека кодирования : x264 core 146 r2538 121396c
    Настройки программы : cabac=1/ref=3/deblock=1: -1: -1/analyse=0x3: 0x113/me=hex/subme=7/psy=1/psy_rd=1.00: 0.20/mixed_ref=1/me_range=16/chroma_me=1/trellis=1/8x8dct=1/cqm=0/deadzone=21, 11/fast_pskip=1/chroma_qp_offset=-3/threads=12/lookahead_threads=2/sliced_threads=0/nr=0/decimate=0/interlaced=0/bluray_compat=0/constrained_intra=0/bframes=3/b_pyramid=2/b_adapt=1/b_bias=0/direct=3/weightb=1/open_gop=0/weightp=2/keyint=250/keyint_min=25/scenecut=40/intra_refresh=0/rc_lookahead=40/rc=2pass/mbtree=1/bitrate=3401/ratetol=1.0/qcomp=0.60/qpmin=0/qpmax=69/qpstep=4/cplxblur=20.0/qblur=0.5/vbv_maxrate=14000/vbv_bufsize=14000/nal_hrd=none/filler=0/ip_ratio=1.40/aq=1: 1.00
    Default : Да
    Forced : Нет
    Аудио
    Идентификатор : 2
    Формат : PCM
    Идентификатор кодека : A_PCM/INT/LIT
    Продолжительность : 3 м. 47 с.
    Вид битрейта : Постоянный
    Битрейт : 1536 Кбит/сек
    Каналы : 2 канала
    Частота : 48, 0 КГц
    Частота кадров : 32, 002 кадра/сек (1500 SPF)
    Битовая глубина : 16 бит
    Размер потока : 41, 6 Мбайт (31%)
    Default : Да
    Forced : Нет
    Общее
    Уникальный идентификатор : 194889150031403215923557299679257579103 (0x929E48F4FC03065D9D62D09590824E5F)
    Полное имя : E: Сборник Рэп и Хип-Хоп клиповRap and Hip Hop videoclips mkv (Disc 3)Rap and Hip Hop from ALEXnROCK mkv (Disc 3)120 Bad Balance - Бит Стучит.mkv
    Формат : Matroska
    Версия формата : Version 4/Version 2
    Размер файла : 128 Мбайт
    Продолжительность : 3 м. 38 с.
    Общий поток : 4929 Кбит/сек
    Дата кодирования : UTC 2017-04-30 13: 00: 45
    Программа кодирования : mkvmerge v9.8.0 (\'Kuglblids\') 64bit
    Библиотека кодирования : libebml v1.3.4 + libmatroska v1.4.5
    Видео
    Идентификатор : 1
    Формат : AVC
    Формат/Информация : Advanced Video Codec
    Профиль формата : High@L4
    Настройки формата : CABAC/4 Ref Frames
    Параметр CABAC формата : Да
    Параметр RefFrames формата : 4 кадра
    Идентификатор кодека : V_MPEG4/ISO/AVC
    Продолжительность : 3 м. 38 с.
    Битрейт : 3401 Кбит/сек
    Ширина : 1280 пикселей
    Высота : 712 пикселей
    Соотношение сторон : 16: 9
    Режим частоты кадров : Постоянный
    Частота кадров : 25, 000 кадров/сек
    Цветовое пространство : YUV
    Субдискретизация насыщенности : 4: 2: 0
    Битовая глубина : 8 бит
    Тип развёртки : Прогрессивная
    Бит/(Пиксели*Кадры) : 0.149
    Размер потока : 88, 6 Мбайт (69%)
    Библиотека кодирования : x264 core 146 r2538 121396c
    Настройки программы : cabac=1/ref=3/deblock=1: -1: -1/analyse=0x3: 0x113/me=hex/subme=7/psy=1/psy_rd=1.00: 0.20/mixed_ref=1/me_range=16/chroma_me=1/trellis=1/8x8dct=1/cqm=0/deadzone=21, 11/fast_pskip=1/chroma_qp_offset=-3/threads=12/lookahead_threads=2/sliced_threads=0/nr=0/decimate=0/interlaced=0/bluray_compat=0/constrained_intra=0/bframes=3/b_pyramid=2/b_adapt=1/b_bias=0/direct=3/weightb=1/open_gop=0/weightp=2/keyint=250/keyint_min=25/scenecut=40/intra_refresh=0/rc_lookahead=40/rc=2pass/mbtree=1/bitrate=3401/ratetol=1.0/qcomp=0.60/qpmin=0/qpmax=69/qpstep=4/cplxblur=20.0/qblur=0.5/vbv_maxrate=14000/vbv_bufsize=14000/nal_hrd=none/filler=0/ip_ratio=1.40/aq=1: 1.00
    Default : Да
    Forced : Нет
    Аудио
    Идентификатор : 2
    Формат : PCM
    Идентификатор кодека : A_PCM/INT/LIT
    Продолжительность : 3 м. 37 с.
    Вид битрейта : Постоянный
    Битрейт : 1536 Кбит/сек
    Каналы : 2 канала
    Частота : 48, 0 КГц
    Частота кадров : 32, 002 кадра/сек (1500 SPF)
    Битовая глубина : 16 бит
    Размер потока : 39, 9 Мбайт (31%)
    Default : Да
    Forced : Нет
    Общее
    Уникальный идентификатор : 219396513779120415991566697454426723657 (0xA50E3B4764E39A37A83236D9A3B51549)
    Полное имя : E: Сборник Рэп и Хип-Хоп клиповRap and Hip Hop videoclips mkv (Disc 3)Rap and Hip Hop from ALEXnROCK mkv (Disc 3)121 DMX feat. Sisqo - What These Bitches Want.mkv
    Формат : Matroska
    Версия формата : Version 4/Version 2
    Размер файла : 161 Мбайт
    Продолжительность : 4 м. 32 с.
    Общий поток : 4951 Кбит/сек
    Дата кодирования : UTC 2017-04-29 18: 55: 39
    Программа кодирования : mkvmerge v9.8.0 (\'Kuglblids\') 64bit
    Библиотека кодирования : libebml v1.3.4 + libmatroska v1.4.5
    Видео
    Идентификатор : 1
    Формат : AVC
    Формат/Информация : Advanced Video Codec
    Профиль формата : High@L4
    Настройки формата : CABAC/4 Ref Frames
    Параметр CABAC формата : Да
    Параметр RefFrames формата : 4 кадра
    Идентификатор кодека : V_MPEG4/ISO/AVC
    Продолжительность : 4 м. 32 с.
    Битрейт : 3401 Кбит/сек
    Ширина : 1280 пикселей
    Высота : 496 пикселей
    Соотношение сторон : 2, 581
    Режим частоты кадров : Постоянный
    Частота кадров : 29, 970 (30000/1001) кадров/сек
    Цветовое пространство : YUV
    Субдискретизация насыщенности : 4: 2: 0
    Битовая глубина : 8 бит
    Тип развёртки : Прогрессивная
    Бит/(Пиксели*Кадры) : 0.179
    Размер потока : 111 Мбайт (69%)
    Библиотека кодирования : x264 core 146 r2538 121396c
    Настройки программы : cabac=1/ref=3/deblock=1: -1: -1/analyse=0x3: 0x113/me=hex/subme=7/psy=1/psy_rd=1.00: 0.20/mixed_ref=1/me_range=16/chroma_me=1/trellis=1/8x8dct=1/cqm=0/deadzone=21, 11/fast_pskip=1/chroma_qp_offset=-3/threads=12/lookahead_threads=2/sliced_threads=0/nr=0/decimate=0/interlaced=0/bluray_compat=0/constrained_intra=0/bframes=3/b_pyramid=2/b_adapt=1/b_bias=0/direct=3/weightb=1/open_gop=0/weightp=2/keyint=250/keyint_min=25/scenecut=40/intra_refresh=0/rc_lookahead=40/rc=2pass/mbtree=1/bitrate=3401/ratetol=1.0/qcomp=0.60/qpmin=0/qpmax=69/qpstep=4/cplxblur=20.0/qblur=0.5/vbv_maxrate=14000/vbv_bufsize=14000/nal_hrd=none/filler=0/ip_ratio=1.40/aq=1: 1.00
    Default : Да
    Forced : Нет
    Аудио
    Идентификатор : 2
    Формат : PCM
    Идентификатор кодека : A_PCM/INT/LIT
    Продолжительность : 4 м. 32 с.
    Вид битрейта : Постоянный
    Битрейт : 1536 Кбит/сек
    Каналы : 2 канала
    Частота : 48, 0 КГц
    Частота кадров : 32, 001 кадра/сек (1500 SPF)
    Битовая глубина : 16 бит
    Размер потока : 49, 9 Мбайт (31%)
    Default : Да
    Forced : Нет
    Общее
    Уникальный идентификатор : 245568467999540550142662798138415245276 (0xB8BEC43F5B9086E0A5AF57E8073FE7DC)
    Полное имя : E: Сборник Рэп и Хип-Хоп клиповRap and Hip Hop videoclips mkv (Disc 3)Rap and Hip Hop from ALEXnROCK mkv (Disc 3)122 2Pac- How Do U Want It (Playboy).mkv
    Формат : Matroska
    Версия формата : Version 4/Version 2
    Размер файла : 170 Мбайт
    Продолжительность : 4 м. 51 с.
    Общий поток : 4907 Кбит/сек
    Дата кодирования : UTC 2017-05-02 14: 34: 29
    Программа кодирования : mkvmerge v9.8.0 (\'Kuglblids\') 64bit
    Библиотека кодирования : libebml v1.3.4 + libmatroska v1.4.5
    Видео
    Идентификатор : 1
    Формат : AVC
    Формат/Информация : Advanced Video Codec
    Профиль формата : High@L4
    Настройки формата : CABAC/4 Ref Frames
    Параметр CABAC формата : Да
    Параметр RefFrames формата : 4 кадра
    Идентификатор кодека : V_MPEG4/ISO/AVC
    Продолжительность : 4 м. 51 с.
    Битрейт : 3401 Кбит/сек
    Ширина : 1280 пикселей
    Высота : 896 пикселей
    Соотношение сторон : 1, 429
    Режим частоты кадров : Постоянный
    Частота кадров : 29, 970 (30000/1001) кадров/сек
    Частота кадров в оригинале : 29, 970 (29970/1000) кадров/сек
    Цветовое пространство : YUV
    Субдискретизация насыщенности : 4: 2: 0
    Битовая глубина : 8 бит
    Тип развёртки : Прогрессивная
    Бит/(Пиксели*Кадры) : 0.099
    Размер потока : 118 Мбайт (69%)
    Библиотека кодирования : x264 core 146 r2538 121396c
    Настройки программы : cabac=1/ref=3/deblock=1: -1: -1/analyse=0x3: 0x113/me=hex/subme=7/psy=1/psy_rd=1.00: 0.20/mixed_ref=1/me_range=16/chroma_me=1/trellis=1/8x8dct=1/cqm=0/deadzone=21, 11/fast_pskip=1/chroma_qp_offset=-3/threads=12/lookahead_threads=2/sliced_threads=0/nr=0/decimate=0/interlaced=0/bluray_compat=0/constrained_intra=0/bframes=3/b_pyramid=2/b_adapt=1/b_bias=0/direct=3/weightb=1/open_gop=0/weightp=2/keyint=250/keyint_min=25/scenecut=40/intra_refresh=0/rc_lookahead=40/rc=2pass/mbtree=1/bitrate=3401/ratetol=1.0/qcomp=0.60/qpmin=0/qpmax=69/qpstep=4/cplxblur=20.0/qblur=0.5/vbv_maxrate=14000/vbv_bufsize=14000/nal_hrd=none/filler=0/ip_ratio=1.40/aq=1: 1.00
    Default : Да
    Forced : Нет
    Аудио
    Идентификатор : 2
    Формат : PCM
    Идентификатор кодека : A_PCM/INT/LIT
    Продолжительность : 4 м. 46 с.
    Вид битрейта : Постоянный
    Битрейт : 1536 Кбит/сек
    Каналы : 2 канала
    Частота : 48, 0 КГц
    Частота кадров : 32, 002 кадра/сек (1500 SPF)
    Битовая глубина : 16 бит
    Размер потока : 52, 5 Мбайт (31%)
    Default : Да
    Forced : Нет
    Общее
    Уникальный идентификатор : 230235913853839492518919459028151458156 (0xAD35D2F6AC8D0FE49BFF1FA1D556596C)
    Полное имя : E: Сборник Рэп и Хип-Хоп клиповRap and Hip Hop videoclips mkv (Disc 3)Rap and Hip Hop from ALEXnROCK mkv (Disc 3)123 Rappers Against Racism - Sorry.mkv
    Формат : Matroska
    Версия формата : Version 2
    Размер файла : 125 Мбайт
    Продолжительность : 3 м. 32 с.
    Общий поток : 4939 Кбит/сек
    Дата кодирования : UTC 2017-04-30 16: 34: 00
    Программа кодирования : mkvmerge v7.8.0 (\'River Man\') 32bit built on Apr 3 2015 12: 11: 22
    Библиотека кодирования : libebml v1.3.1 + libmatroska v1.4.2
    Видео
    Идентификатор : 1
    Формат : AVC
    Формат/Информация : Advanced Video Codec
    Профиль формата : High@L4
    Настройки формата : CABAC/4 Ref Frames
    Параметр CABAC формата : Да
    Параметр RefFrames формата : 4 кадра
    Идентификатор кодека : V_MPEG4/ISO/AVC
    Продолжительность : 3 м. 32 с.
    Номинальный битрейт : 3401 Кбит/сек
    Ширина : 1280 пикселей
    Высота : 688 пикселей
    Соотношение сторон : 1, 85: 1
    Режим частоты кадров : Постоянный
    Частота кадров : 25, 000 кадров/сек
    Цветовое пространство : YUV
    Субдискретизация насыщенности : 4: 2: 0
    Битовая глубина : 8 бит
    Тип развёртки : Прогрессивная
    Бит/(Пиксели*Кадры) : 0.154
    Библиотека кодирования : x264 core 146 r2538 121396c
    Настройки программы : cabac=1/ref=3/deblock=1: -1: -1/analyse=0x3: 0x113/me=hex/subme=7/psy=1/psy_rd=1.00: 0.20/mixed_ref=1/me_range=16/chroma_me=1/trellis=1/8x8dct=1/cqm=0/deadzone=21, 11/fast_pskip=1/chroma_qp_offset=-3/threads=12/lookahead_threads=2/sliced_threads=0/nr=0/decimate=0/interlaced=0/bluray_compat=0/constrained_intra=0/bframes=3/b_pyramid=2/b_adapt=1/b_bias=0/direct=3/weightb=1/open_gop=0/weightp=2/keyint=250/keyint_min=25/scenecut=40/intra_refresh=0/rc_lookahead=40/rc=2pass/mbtree=1/bitrate=3401/ratetol=1.0/qcomp=0.60/qpmin=0/qpmax=69/qpstep=4/cplxblur=20.0/qblur=0.5/vbv_maxrate=14000/vbv_bufsize=14000/nal_hrd=none/filler=0/ip_ratio=1.40/aq=1: 1.00
    Default : Да
    Forced : Нет
    Аудио
    Идентификатор : 2
    Формат : PCM
    Идентификатор кодека : A_PCM/INT/LIT
    Продолжительность : 3 м. 32 с.
    Вид битрейта : Постоянный
    Каналы : 2 канала
    Частота : 48, 0 КГц
    Битовая глубина : 16 бит
    Default : Да
    Forced : Нет
    Общее
    Уникальный идентификатор : 189120256957879146728401522898146940518 (0x8E473C91973C777F8185360AE3DBD666)
    Полное имя : E: Сборник Рэп и Хип-Хоп клиповRap and Hip Hop videoclips mkv (Disc 3)Rap and Hip Hop from ALEXnROCK mkv (Disc 3)124 Ludacris feat. Sean Garrett Chris Brown - What Them Girls Like.mkv
    Формат : Matroska
    Версия формата : Version 4/Version 2
    Размер файла : 161 Мбайт
    Продолжительность : 4 м. 34 с.
    Общий поток : 4935 Кбит/сек
    Дата кодирования : UTC 2017-05-01 11: 55: 12
    Программа кодирования : mkvmerge v9.8.0 (\'Kuglblids\') 64bit
    Библиотека кодирования : libebml v1.3.4 + libmatroska v1.4.5
    Видео
    Идентификатор : 1
    Формат : AVC
    Формат/Информация : Advanced Video Codec
    Профиль формата : High@L4
    Настройки формата : CABAC/4 Ref Frames
    Параметр CABAC формата : Да
    Параметр RefFrames формата : 4 кадра
    Идентификатор кодека : V_MPEG4/ISO/AVC
    Продолжительность : 4 м. 34 с.
    Битрейт : 3401 Кбит/сек
    Ширина : 1280 пикселей
    Высота : 888 пикселей
    Соотношение сторон : 1, 441
    Режим частоты кадров : Постоянный
    Частота кадров : 29, 970 (30000/1001) кадров/сек
    Цветовое пространство : YUV
    Субдискретизация насыщенности : 4: 2: 0
    Битовая глубина : 8 бит
    Тип развёртки : Прогрессивная
    Бит/(Пиксели*Кадры) : 0.100
    Размер потока : 111 Мбайт (69%)
    Библиотека кодирования : x264 core 146 r2538 121396c
    Настройки программы : cabac=1/ref=3/deblock=1: -1: -1/analyse=0x3: 0x113/me=hex/subme=7/psy=1/psy_rd=1.00: 0.20/mixed_ref=1/me_range=16/chroma_me=1/trellis=1/8x8dct=1/cqm=0/deadzone=21, 11/fast_pskip=1/chroma_qp_offset=-3/threads=12/lookahead_threads=2/sliced_threads=0/nr=0/decimate=0/interlaced=0/bluray_compat=0/constrained_intra=0/bframes=3/b_pyramid=2/b_adapt=1/b_bias=0/direct=3/weightb=1/open_gop=0/weightp=2/keyint=250/keyint_min=25/scenecut=40/intra_refresh=0/rc_lookahead=40/rc=2pass/mbtree=1/bitrate=3401/ratetol=1.0/qcomp=0.60/qpmin=0/qpmax=69/qpstep=4/cplxblur=20.0/qblur=0.5/vbv_maxrate=14000/vbv_bufsize=14000/nal_hrd=none/filler=0/ip_ratio=1.40/aq=1: 1.00
    Default : Да
    Forced : Нет
    Аудио
    Идентификатор : 2
    Формат : PCM
    Идентификатор кодека : A_PCM/INT/LIT
    Продолжительность : 4 м. 33 с.
    Вид битрейта : Постоянный
    Битрейт : 1536 Кбит/сек
    Каналы : 2 канала
    Частота : 48, 0 КГц
    Частота кадров : 32, 001 кадра/сек (1500 SPF)
    Битовая глубина : 16 бит
    Размер потока : 50, 1 Мбайт (31%)
    Default : Да
    Forced : Нет
    Общее
    Уникальный идентификатор : 174428905743735729311269542854246384236 (0x8339C907B519A5DD8BF55A3E6635C26C)
    Полное имя : E: Сборник Рэп и Хип-Хоп клиповRap and Hip Hop videoclips mkv (Disc 3)Rap and Hip Hop from ALEXnROCK mkv (Disc 3)125 Децл - Письмо.mkv
    Формат : Matroska
    Версия формата : Version 4/Version 2
    Размер файла : 157 Мбайт
    Продолжительность : 4 м. 26 с.
    Общий поток : 4933 Кбит/сек
    Дата кодирования : UTC 2017-05-05 11: 21: 33
    Программа кодирования : mkvmerge v9.8.0 (\'Kuglblids\') 64bit
    Библиотека кодирования : libebml v1.3.4 + libmatroska v1.4.5
    Видео
    Идентификатор : 1
    Формат : AVC
    Формат/Информация : Advanced Video Codec
    Профиль формата : High@L4
    Настройки формата : CABAC/4 Ref Frames
    Параметр CABAC формата : Да
    Параметр RefFrames формата : 4 кадра
    Идентификатор кодека : V_MPEG4/ISO/AVC
    Продолжительность : 4 м. 26 с.
    Битрейт : 3401 Кбит/сек
    Ширина : 1280 пикселей
    Высота : 720 пикселей
    Соотношение сторон : 16: 9
    Режим частоты кадров : Постоянный
    Частота кадров : 24, 000 кадра/сек
    Цветовое пространство : YUV
    Субдискретизация насыщенности : 4: 2: 0
    Битовая глубина : 8 бит
    Тип развёртки : Прогрессивная
    Бит/(Пиксели*Кадры) : 0.154
    Размер потока : 108 Мбайт (69%)
    Библиотека кодирования : x264 core 146 r2538 121396c
    Настройки программы : cabac=1/ref=3/deblock=1: -1: -1/analyse=0x3: 0x113/me=hex/subme=7/psy=1/psy_rd=1.00: 0.20/mixed_ref=1/me_range=16/chroma_me=1/trellis=1/8x8dct=1/cqm=0/deadzone=21, 11/fast_pskip=1/chroma_qp_offset=-3/threads=12/lookahead_threads=2/sliced_threads=0/nr=0/decimate=0/interlaced=0/bluray_compat=0/constrained_intra=0/bframes=3/b_pyramid=2/b_adapt=1/b_bias=0/direct=3/weightb=1/open_gop=0/weightp=2/keyint=250/keyint_min=23/scenecut=40/intra_refresh=0/rc_lookahead=40/rc=2pass/mbtree=1/bitrate=3401/ratetol=1.0/qcomp=0.60/qpmin=0/qpmax=69/qpstep=4/cplxblur=20.0/qblur=0.5/vbv_maxrate=14000/vbv_bufsize=14000/nal_hrd=none/filler=0/ip_ratio=1.40/aq=1: 1.00
    Default : Да
    Forced : Нет
    Аудио
    Идентификатор : 2
    Формат : PCM
    Идентификатор кодека : A_PCM/INT/LIT
    Продолжительность : 4 м. 26 с.
    Вид битрейта : Постоянный
    Битрейт : 1536 Кбит/сек
    Каналы : 2 канала
    Частота : 48, 0 КГц
    Частота кадров : 32, 001 кадра/сек (1500 SPF)
    Битовая глубина : 16 бит
    Размер потока : 48, 7 Мбайт (31%)
    Default : Да
    Forced : Нет
    Общее
    Уникальный идентификатор : 177795223879325192805645637318023898384 (0x85C21D540DFEE809A5E307066500E510)
    Полное имя : E: Сборник Рэп и Хип-Хоп клиповRap and Hip Hop videoclips mkv (Disc 3)Rap and Hip Hop from ALEXnROCK mkv (Disc 3)126 Trick Trick feat. Ice Cube - Let It Fly.mkv
    Формат : Matroska
    Версия формата : Version 2
    Размер файла : 150 Мбайт
    Продолжительность : 4 м. 14 с.
    Общий поток : 4940 Кбит/сек
    Дата кодирования : UTC 2017-04-30 20: 18: 39
    Программа кодирования : mkvmerge v7.8.0 (\'River Man\') 32bit built on Apr 3 2015 12: 11: 22
    Библиотека кодирования : libebml v1.3.1 + libmatroska v1.4.2
    Видео
    Идентификатор : 1
    Формат : AVC
    Формат/Информация : Advanced Video Codec
    Профиль формата : High@L4
    Настройки формата : CABAC/4 Ref Frames
    Параметр CABAC формата : Да
    Параметр RefFrames формата : 4 кадра
    Идентификатор кодека : V_MPEG4/ISO/AVC
    Продолжительность : 4 м. 14 с.
    Номинальный битрейт : 3401 Кбит/сек
    Ширина : 1280 пикселей
    Высота : 720 пикселей
    Соотношение сторон : 16: 9
    Режим частоты кадров : Постоянный
    Частота кадров : 29, 970 (30000/1001) кадров/сек
    Цветовое пространство : YUV
    Субдискретизация насыщенности : 4: 2: 0
    Битовая глубина : 8 бит
    Тип развёртки : Прогрессивная
    Бит/(Пиксели*Кадры) : 0.123
    Библиотека кодирования : x264 core 146 r2538 121396c
    Настройки программы : cabac=1/ref=3/deblock=1: -1: -1/analyse=0x3: 0x113/me=hex/subme=7/psy=1/psy_rd=1.00: 0.20/mixed_ref=1/me_range=16/chroma_me=1/trellis=1/8x8dct=1/cqm=0/deadzone=21, 11/fast_pskip=1/chroma_qp_offset=-3/threads=12/lookahead_threads=2/sliced_threads=0/nr=0/decimate=0/interlaced=0/bluray_compat=0/constrained_intra=0/bframes=3/b_pyramid=2/b_adapt=1/b_bias=0/direct=3/weightb=1/open_gop=0/weightp=2/keyint=250/keyint_min=25/scenecut=40/intra_refresh=0/rc_lookahead=40/rc=2pass/mbtree=1/bitrate=3401/ratetol=1.0/qcomp=0.60/qpmin=0/qpmax=69/qpstep=4/cplxblur=20.0/qblur=0.5/vbv_maxrate=14000/vbv_bufsize=14000/nal_hrd=none/filler=0/ip_ratio=1.40/aq=1: 1.00
    Default : Да
    Forced : Нет
    Аудио
    Идентификатор : 2
    Формат : PCM
    Идентификатор кодека : A_PCM/INT/LIT
    Продолжительность : 4 м. 14 с.
    Вид битрейта : Постоянный
    Каналы : 2 канала
    Частота : 48, 0 КГц
    Битовая глубина : 16 бит
    Default : Да
    Forced : Нет
    Общее
    Уникальный идентификатор : 218865699977463585011069075453696323086 (0xA4A800234BFD80ED8E3913E29C30AE0E)
    Полное имя : E: Сборник Рэп и Хип-Хоп клиповRap and Hip Hop videoclips mkv (Disc 3)Rap and Hip Hop from ALEXnROCK mkv (Disc 3)127 50 Cent - Position Of Power.mkv
    Формат : Matroska
    Версия формата : Version 4/Version 2
    Размер файла : 141 Мбайт
    Продолжительность : 3 м. 59 с.
    Общий поток : 4945 Кбит/сек
    Дата кодирования : UTC 2017-04-30 21: 16: 10
    Программа кодирования : mkvmerge v9.8.0 (\'Kuglblids\') 64bit
    Библиотека кодирования : libebml v1.3.4 + libmatroska v1.4.5
    Видео
    Идентификатор : 1
    Формат : AVC
    Формат/Информация : Advanced Video Codec
    Профиль формата : High@L4
    Настройки формата : CABAC/4 Ref Frames
    Параметр CABAC формата : Да
    Параметр RefFrames формата : 4 кадра
    Идентификатор кодека : V_MPEG4/ISO/AVC
    Продолжительность : 3 м. 59 с.
    Битрейт : 3401 Кбит/сек
    Ширина : 1280 пикселей
    Высота : 720 пикселей
    Соотношение сторон : 16: 9
    Режим частоты кадров : Постоянный
    Частота кадров : 23, 976 (24000/1001) кадра/сек
    Цветовое пространство : YUV
    Субдискретизация насыщенности : 4: 2: 0
    Битовая глубина : 8 бит
    Тип развёртки : Прогрессивная
    Бит/(Пиксели*Кадры) : 0.154
    Размер потока : 97, 2 Мбайт (69%)
    Библиотека кодирования : x264 core 146 r2538 121396c
    Настройки программы : cabac=1/ref=3/deblock=1: -1: -1/analyse=0x3: 0x113/me=hex/subme=7/psy=1/psy_rd=1.00: 0.20/mixed_ref=1/me_range=16/chroma_me=1/trellis=1/8x8dct=1/cqm=0/deadzone=21, 11/fast_pskip=1/chroma_qp_offset=-3/threads=12/lookahead_threads=2/sliced_threads=0/nr=0/decimate=0/interlaced=0/bluray_compat=0/constrained_intra=0/bframes=3/b_pyramid=2/b_adapt=1/b_bias=0/direct=3/weightb=1/open_gop=0/weightp=2/keyint=250/keyint_min=23/scenecut=40/intra_refresh=0/rc_lookahead=40/rc=2pass/mbtree=1/bitrate=3401/ratetol=1.0/qcomp=0.60/qpmin=0/qpmax=69/qpstep=4/cplxblur=20.0/qblur=0.5/vbv_maxrate=14000/vbv_bufsize=14000/nal_hrd=none/filler=0/ip_ratio=1.40/aq=1: 1.00
    Default : Да
    Forced : Нет
    Аудио
    Идентификатор : 2
    Формат : PCM
    Идентификатор кодека : A_PCM/INT/LIT
    Продолжительность : 3 м. 59 с.
    Вид битрейта : Постоянный
    Битрейт : 1536 Кбит/сек
    Каналы : 2 канала
    Частота : 48, 0 КГц
    Частота кадров : 32, 002 кадра/сек (1500 SPF)
    Битовая глубина : 16 бит
    Размер потока : 43, 8 Мбайт (31%)
    Default : Да
    Forced : Нет
    Общее
    Уникальный идентификатор : 227457731604421669899627948706674393215 (0xAB1EC400D903ADE39D06216D0FCA407F)
    Полное имя : E: Сборник Рэп и Хип-Хоп клиповRap and Hip Hop videoclips mkv (Disc 3)Rap and Hip Hop from ALEXnROCK mkv (Disc 3)128 Nelly - Dilemma feat. Kelly Rowland.mkv
    Формат : Matroska
    Версия формата : Version 4/Version 2
    Размер файла : 166 Мбайт
    Продолжительность : 4 м. 42 с.
    Общий поток : 4920 Кбит/сек
    Дата кодирования : UTC 2017-05-01 17: 58: 10
    Программа кодирования : mkvmerge v9.8.0 (\'Kuglblids\') 64bit
    Библиотека кодирования : libebml v1.3.4 + libmatroska v1.4.5
    Видео
    Идентификатор : 1
    Формат : AVC
    Формат/Информация : Advanced Video Codec
    Профиль формата : High@L4
    Настройки формата : CABAC/4 Ref Frames
    Параметр CABAC формата : Да
    Параметр RefFrames формата : 4 кадра
    Идентификатор кодека : V_MPEG4/ISO/AVC
    Продолжительность : 4 м. 42 с.
    Битрейт : 3401 Кбит/сек
    Ширина : 1280 пикселей
    Высота : 880 пикселей
    Соотношение сторон : 3: 2
    Режим частоты кадров : Постоянный
    Частота кадров : 24, 000 кадра/сек
    Цветовое пространство : YUV
    Субдискретизация насыщенности : 4: 2: 0
    Битовая глубина : 8 бит
    Тип развёртки : Прогрессивная
    Бит/(Пиксели*Кадры) : 0.126
    Размер потока : 115 Мбайт (69%)
    Библиотека кодирования :
    Рейтинг →
     (голосов: 1, оценка 3/5, голосовать можно 1 раз )

    Другие торренты по теме:

  • Чи-Ли - Сборник клипов (2005-2015) DVDRip WebRip
  • Сборник клипов - Philizz "Video YearMix" (2015) HDTV [1080p]
  • Сборник клипов - Philizz "Tropical Summer" (2016) HDTV [1080p]
  • Сборник клипов - Philizz "I covered the 80s" (season 1, episode 1-5) (2016) WEB-DLRip [H.264 / 720-LQ]
  • Сборник клипов - Philizz "Video Yearmix" (2016) HDTV [AVC / 1080p]
  • Сборник клипов - Philizz "Back To The 90s" (episode 1) (2017) WEB-DLRip [720p]
  • Сборник клипов - Philizz "Back To The 90s" (episode 2) (2017) WEB-DLRip [H.264 / 720p-LQ]
  • Сборник клипов - Philizz "Back To The 90s" (episode 3) (2017) WEB-DLRip [H.264 / 720p-LQ]


    • Комментарии (0):

      Информация

      Информация

        Посетители, находящиеся в группе Гости, не могут оставлять комментарии в данной новости.

        ↓ Меню




        ↓ Опрос

        Вы добавили сайт в закладки?
        Да
        Нет


        Top 10 за месяц (Другое)