.
Авторизация | Регистрация
Хочешь лучшие торренты? Добавь свой email!
Добавить

Торрент скачать бесплатно

» » Безумный город / Madtown (2016) WEB-DLRip [MVO] [AD] торрент скачать бесплатно


    Безумный город / Madtown (2016) WEB-DLRip [MVO] [AD] торрент скачать бесплатно

    Опубликовал: Админ | Дата: 10-01-2018, 05:00 | .torrent скачали: 5

    Безумный город / Madtown (2016) WEB-DLRip [MVO] [AD]Производство: США/Madtown Movie, Two Car Parade
    Жанр: Драма, Триллер
    Режиссер: Чарльз Мур

    Актеры
    Майло Вентимилья, Джон Биллингсли, Рэйчел Мелвин, Шон Грандильо, Бонита Фридериси, Камерон МакКендри, Кармен Гангале, Аманда Эдэй, Кристофер С. Меле

    Описание

    История поветствует о молодом человеке Дэнни Бригсе, который помогает своей сестре встать на ноги после заключения. Меняя работу и заводя знакомства, он не теряет надежду и воспринимает все в шутку, придумывая веселые истории и исполняя их на сцене. Получится ли у Дэнни самому обрести стабильность, или вечные проблемы так и будут преследовать его на жизненном пути?

    Релиз от: KOSHARA
    Продолжительность: 01: 53: 17
    Качество видео: WEB-DLRip
    Перевод: Многоголосый закадровый (Синема УС)
    Субтитры: отсутствуют
    Реклама: присутствую аудио, видео и текстовые вставки рекламы
    Видео: Xvid, 720x368, ~1526 Kbps
    Аудио: AC3, 2 ch, 192 Kbps

    General
    Complete name : /media/win/TORRENT/UPLOAD TORRENTS/Madtown 2017.P.WEB-DLRip.14OOMB.avi
    Format : AVI
    Format/Info : Audio Video Interleave
    File size : 1.37 GiB
    Duration : 1 h 53 min
    Overall bit rate : 1 727 kb/s
    Writing application : VirtualDubMod 1.5.10.2 (build 2540/release)
    Writing library : VirtualDubMod build 2540/release
    Video
    ID : 0
    Format : MPEG-4 Visual
    Format profile : Advanced Simple@L5
    Format settings : BVOP2
    Format settings, BVOP : 2
    Format settings, QPel : No
    Format settings, GMC : No warppoints
    Format settings, Matrix : Default (MPEG)
    Codec ID : XVID
    Codec ID/Hint : XviD
    Duration : 1 h 53 min
    Bit rate : 1 526 kb/s
    Width : 720 pixels
    Height : 368 pixels
    Display aspect ratio : 1.957
    Frame rate : 23.976 (24000/1001) FPS
    Color space : YUV
    Chroma subsampling : 4: 2: 0
    Bit depth : 8 bits
    Scan type : Progressive
    Compression mode : Lossy
    Bits/(Pixel*Frame) : 0.240
    Stream size : 1.21 GiB (88%)
    Writing library : XviD 1.2.1 (UTC 2008-12-04)
    Audio
    ID : 1
    Format : AC-3
    Format/Info : Audio Coding 3
    Codec ID : 2000
    Duration : 1 h 53 min
    Bit rate mode : Constant
    Bit rate : 192 kb/s
    Channel(s) : 2 channels
    Channel positions : Front: L R
    Sampling rate : 48.0 kHz
    Frame rate : 31.250 FPS (1536 SPF)
    Bit depth : 16 bits
    Compression mode : Lossy
    Stream size : 156 MiB (11%)
    Alignment : Split accross interleaves
    Interleave, duration : 42 ms (1.00 video frame)
    Interleave, preload duration : 500 ms
    Service kind : Complete Main

    Скриншоты для ознакомления



    Все одноименные релизы в Клубе
    Время раздачи: c 09: 00 до 22: 00 до пяти скачавших (до появления первых 3-5 скачавших)


    Безумный город/Madtown (2016) WEB-DLRip [MVO] [AD]
    Рейтинг →
     (голосов: 1, оценка 4/5, голосовать можно 1 раз )

    Другие торренты по теме:

  • Асура: Безумный город / Asura (2016) HDRip
  • Безумный город / Mad city (1997) BDRip [H.264 / 720p-LQ]


    • Комментарии (0):

      Информация

      Информация

        Посетители, находящиеся в группе Гости, не могут оставлять комментарии в данной новости.

        ↓ Меню




        ↓ Опрос

        Вы добавили сайт в закладки?
        Да
        Нет


        Top 10 за месяц (Другое)