.
Авторизация | Регистрация
Хочешь лучшие торренты? Добавь свой email!
Добавить

Торрент скачать бесплатно

» » Радионяня / Baby Phone (2017) WEB-DLRip [MVO] [AD] торрент скачать бесплатно


    Радионяня / Baby Phone (2017) WEB-DLRip [MVO] [AD] торрент скачать бесплатно

    Опубликовал: Админ | Дата: 10-01-2018, 05:00 | .torrent скачали: 3

    Радионяня / Baby Phone (2017) WEB-DLRip [MVO] [AD]Производство: Франция, Бельгия/Baby Phone Cinéma, Nexus Factory, C8 Films See
    Жанр: Комедия
    Режиссер: Касас Оливье

    Актеры
    Меди Садун, Энн Маривин, Паскаль Демолон, Ланник Готри, Мишель Йонас, Мари-Кристин Адам, Барбара Шульц

    Описание

    Во время безобидного семейного ужина случайно услышанный разговор друзей по радионяне превращает долгожданный вечер в настоящую катастрофу, внося страшный разлад в отношения близких и родных.

    Дата мировой премьеры: 21.01.2017
    Дата российской премьеры: неизвестно
    Релиз от: KOSHARA
    Продолжительность: 01: 26: 28
    Качество видео: WEB-DLRip
    Перевод: Многоголосый закадровый (Синема УС)
    Субтитры: отсутствуют
    Реклама: присутствуют аудио, видео и текстовые вставки рекламы
    Видео: Xvid, 720x304, ~1718 Kbps
    Аудио: AC3, 2 ch, 384 Kbps

    General
    Complete name : /media/win/TORRENT/UPLOAD TORRENTS/Baby.Phone.2017.P.WEB-DLRip.1400MB.avi
    Format : AVI
    Format/Info : Audio Video Interleave
    File size : 1.28 GiB
    Duration : 1 h 26 min
    Overall bit rate : 2 112 kb/s
    Writing application : VirtualDubMod 1.5.10.3 (build 2550/release)
    Writing library : VirtualDubMod build 2550/release
    Video
    ID : 0
    Format : MPEG-4 Visual
    Format profile : Advanced Simple@L5
    Format settings : BVOP2
    Format settings, BVOP : 2
    Format settings, QPel : No
    Format settings, GMC : No warppoints
    Format settings, Matrix : Default (MPEG)
    Codec ID : XVID
    Codec ID/Hint : XviD
    Duration : 1 h 26 min
    Bit rate : 1 718 kb/s
    Width : 720 pixels
    Height : 304 pixels
    Display aspect ratio : 2.35: 1
    Frame rate : 24.000 FPS
    Color space : YUV
    Chroma subsampling : 4: 2: 0
    Bit depth : 8 bits
    Scan type : Progressive
    Compression mode : Lossy
    Bits/(Pixel*Frame) : 0.327
    Stream size : 1.04 GiB (81%)
    Writing library : XviD 1.2.1 (UTC 2008-12-04)
    Audio
    ID : 1
    Format : AC-3
    Format/Info : Audio Coding 3
    Codec ID : 2000
    Duration : 1 h 26 min
    Bit rate mode : Constant
    Bit rate : 384 kb/s
    Channel(s) : 2 channels
    Channel positions : Front: L R
    Sampling rate : 48.0 kHz
    Frame rate : 31.250 FPS (1536 SPF)
    Bit depth : 16 bits
    Compression mode : Lossy
    Stream size : 238 MiB (18%)
    Alignment : Split accross interleaves
    Interleave, duration : 42 ms (1.00 video frame)
    Interleave, preload duration : 500 ms
    Service kind : Complete Main

    Скриншоты для ознакомления



    Все одноименные релизы в Клубе
    Время раздачи: с 09: 00 до 22: 00 до пяти скачавших (до появления первых 3-5 скачавших)


    Радионяня/Baby Phone (2017) WEB-DLRip [MVO] [AD]
    Рейтинг →
     (голосов: 1, оценка 3/5, голосовать можно 1 раз )

    Другие торренты по теме:

  • Радионяня 3G / Baby Monitor 3G v4.1.0 [Ru / Multi] - аудио- и видеонаблюдение за своим малышом
  • Радионяня 3G / Baby Monitor 3G v4.1.0 [Ru / Multi] - аудио- и видеонаблюдение за своим малышом


    • Комментарии (0):

      Информация

      Информация

        Посетители, находящиеся в группе Гости, не могут оставлять комментарии в данной новости.

        ↓ Меню




        ↓ Опрос

        Вы добавили сайт в закладки?
        Да
        Нет


        Top 10 за месяц (Другое)