.
Авторизация | Регистрация
Хочешь лучшие торренты? Добавь свой email!
Добавить

Торрент скачать бесплатно

» » Слава / Slava (2016) DVDRip [MVO] [AD] торрент скачать бесплатно


    Слава / Slava (2016) DVDRip [MVO] [AD] торрент скачать бесплатно

    Опубликовал: Админ | Дата: 7-01-2018, 05:00 | .torrent скачали: 1

    Слава / Slava (2016) DVDRip [MVO] [AD]Производство: Болгария, Греция/Abraxas Film, Aporia Filmworks, Graal Films
    Жанр: Драма
    Режиссер: Кристина Грозева, Петар Вылчанов

    Актеры
    Stefan Denolyubov, Маргита Гошева, Ana Bratoeva, Надежда Братоева, Никола Додов, Stanislav Ganchev, Mira Iskarova, Милко Лазаров, Христофор Недков

    Описание

    Рабочий-путеец Цанко Петров во время обхода железнодорожных путей находит огромную денежную сумму и сдает ее в полицейский участок. Министерство транспорта награждает Цанко новыми наручными часами, которые почти сразу ломаются. Между тем старые именные часы Слава, подаренные Цанко его отцом, теряет глава министерской PR службы Юлия Стайкова..

    Релиз от: KOSHARA
    Продолжительность: 01: 42: 19
    Качество видео: DVDRip
    Перевод: Многоголосый закадровый (Синема УС)
    Субтитры: отсутствуют
    Реклама: присутствуют аудио и видео вставки рекламы
    Видео: Xvid, 704x368, ~1518 Kbps
    Аудио: AC3, 2 ch, 384 Kbps

    General
    Complete name : /media/win/TORRENT/UPLOAD TORRENTS/Glory.2016.P.DVDRip.14OOMB.avi
    Format : AVI
    Format/Info : Audio Video Interleave
    File size : 1.37 GiB
    Duration : 1 h 42 min
    Overall bit rate : 1 912 kb/s
    Writing application : VirtualDubMod 1.5.10.2 (build 2540/release)
    Writing library : VirtualDubMod build 2540/release
    Video
    ID : 0
    Format : MPEG-4 Visual
    Format profile : Advanced Simple@L5
    Format settings : BVOP2
    Format settings, BVOP : 2
    Format settings, QPel : No
    Format settings, GMC : No warppoints
    Format settings, Matrix : Default (MPEG)
    Codec ID : XVID
    Codec ID/Hint : XviD
    Duration : 1 h 42 min
    Bit rate : 1 519 kb/s
    Width : 704 pixels
    Height : 368 pixels
    Display aspect ratio : 1.913
    Frame rate : 23.976 (24000/1001) FPS
    Color space : YUV
    Chroma subsampling : 4: 2: 0
    Bit depth : 8 bits
    Scan type : Progressive
    Compression mode : Lossy
    Bits/(Pixel*Frame) : 0.245
    Stream size : 1.09 GiB (79%)
    Writing library : XviD 1.2.1 (UTC 2008-12-04)
    Audio
    ID : 1
    Format : AC-3
    Format/Info : Audio Coding 3
    Codec ID : 2000
    Duration : 1 h 42 min
    Bit rate mode : Constant
    Bit rate : 384 kb/s
    Channel(s) : 2 channels
    Channel positions : Front: L R
    Sampling rate : 48.0 kHz
    Frame rate : 31.250 FPS (1536 SPF)
    Bit depth : 16 bits
    Compression mode : Lossy
    Stream size : 281 MiB (20%)
    Alignment : Split accross interleaves
    Interleave, duration : 42 ms (1.00 video frame)
    Interleave, preload duration : 500 ms
    Service kind : Complete Main

    Скриншоты для ознакомления



    Все одноименные релизы в Клубе
    Время раздачи: c 09: 00 до 22: 00 до пяти скачавших (до появления первых 3-5 скачавших)


    Слава/Slava (2016) DVDRip [MVO] [AD]
    Рейтинг →
     (голосов: 1, оценка 3/5, голосовать можно 1 раз )

    Другие торренты по теме:

  • Елена Озерецкая | Звенит слава в Киеве (1974) [FB2, EPUB]
  • Слава (2014) WEB-DL [H.264 / 720p-LQ] (серии 1-4 из 4)
  • Слава (Фетисов) (2014) HDTVRip [H.264 / 720p-LQ] (серии 1-4 из 4) скачать через торрент бесплатно
  • Слава (Фетисов) (2014) HDTV [H.264 / 1080i] (серии 1-4 из 4) скачать через торрент бесплатно
  • Слава (Фетисов) (2014) HDTVRip (Серии 1-2 из 4) (обновляемая) скачать через торрент бесплатно
  • Слава (Фетисов) (2014) HDTVRip [H.264] (серии 1-4 из 4) скачать через торрент бесплатно
  • Подшивка журналов | Морская слава России №1-18 [Обновляемая] (2014-2015) [PDF] скачать через торрент бесплатно
  • Слава моего отца / La gloire de mon pere (1990) HDRip [VO] скачать через торрент бесплатно


    • Комментарии (0):

      Информация

      Информация

        Посетители, находящиеся в группе Гости, не могут оставлять комментарии в данной новости.

        ↓ Меню




        ↓ Опрос

        Вы добавили сайт в закладки?
        Да
        Нет


        Top 10 за месяц (Другое)