.
Авторизация | Регистрация
Хочешь лучшие торренты? Добавь свой email!
Добавить

Торрент скачать бесплатно

» » Бойфренд из будущего / About Time (2013) HDRip [H.264] [Hand Made Extended Cut] торрент скачать бесплатно


    Бойфренд из будущего / About Time (2013) HDRip [H.264] [Hand Made Extended Cut] торрент скачать бесплатно

    Опубликовал: Админ | Дата: 6-01-2018, 05:00 | .torrent скачали: 1

    Бойфренд из будущего / About Time (2013) HDRip [H.264] [Hand Made Extended Cut]Производство: Великобритания/Translux, Working Title Films
    Жанр: Драма, Комедия, Мелодрама, Фэнтези
    Режиссер: Ричард Кёртис

    Актеры
    Донал Глисон, Рэйчел МакАдамс, Билл Найи, Том Холландер, Марго Робби, Лидия Уилсон, Линдси Дункан, Ричард Кордери, Джош МакГуайр, Уилл Меррик

    Описание

    Тиму повезло — он молодой, симпатичный, многообещающий адвокат, а еще он… умеет перемещаться во времени. И чтобы очаровать девушку своей мечты, он готов повторять первое свидание вновь и вновь. Воистину, любовь с первого взгляда не всегда выходит с первого раза.

    Возраст: 16+ (зрителям, достигшим 16 лет)
    Рейтинг MPAA: R (лицам до 17 лет обязательно присутствие взрослого)
    Релиз от: MAG3131
    Продолжительность: 02: 12: 43
    Качество видео: HDRip
    Перевод: Дублированный с вставками любительского псевдо-дубляжа \'\'Dars Group\'\'
    Субтитры: Отсутствуют
    Видео: AVC/H.264, 720x296, ~1278 kbps, 29, 970 fps
    Аудио: AC3, 2 ch, 192 kbps
    Данная версия фильма на Blu-Ray не выходила как расширенная версия. Поэтому это Неофициальная (фанатная) версия. Добавленные сцены отличаются по качеству видео от самого фильма.

    Общее
    Уникальный идентификатор : 64449786602877404586705890542161602263 (0x307C93D003780C517540CA426441A6D7)
    Полное имя : Бойфренд из будущего (Расширенная версия) (About Time) (Extended Cut).mkv
    Формат : Matroska
    Версия формата : Version 2
    Размер файла : 1, 36 Гбайт
    Продолжительность : 2 ч. 12 м.
    Общий поток : 1471 Кбит/сек
    Дата кодирования : UTC 2018-01-05 01: 43: 29
    Программа кодирования : mkvmerge v19.0.0 (\'Brave Captain\') 64-bit
    Библиотека кодирования : libebml v1.3.5 + libmatroska v1.4.8
    Видео
    Идентификатор : 1
    Формат : AVC
    Формат/Информация : Advanced Video Codec
    Профиль формата : High@L4.1
    Настройки формата : CABAC/12 Ref Frames
    Параметр CABAC формата : Да
    Параметр RefFrames формата : 12 кадров
    Идентификатор кодека : V_MPEG4/ISO/AVC
    Продолжительность : 2 ч. 12 м.
    Битрейт : 1278 Кбит/сек
    Ширина : 720 пикселей
    Высота : 296 пикселей
    Соотношение сторон : 2, 40: 1
    Режим частоты кадров : Постоянный
    Частота кадров : 29, 970 (29970/1000) кадров/сек
    Цветовое пространство : YUV
    Субдискретизация насыщенности : 4: 2: 0
    Битовая глубина : 8 бит
    Тип развёртки : Прогрессивная
    Бит/(Пиксели*Кадры) : 0.200
    Размер потока : 1, 16 Гбайт (85%)
    Заголовок : Бойфренд из будущего (Расширенная версия) (About Time) (Extended Cut)
    Библиотека кодирования : x264 core 152 r2851 ba24899
    Настройки программы : cabac=1/ref=12/deblock=1: -1: -1/analyse=0x3: 0x133/me=umh/subme=11/psy=1/psy_rd=1.00: 0.15/mixed_ref=1/me_range=64/chroma_me=1/trellis=2/8x8dct=1/cqm=0/deadzone=21, 11/fast_pskip=0/chroma_qp_offset=-3/threads=6/lookahead_threads=1/sliced_threads=0/nr=0/decimate=0/interlaced=0/bluray_compat=0/constrained_intra=0/bframes=16/b_pyramid=2/b_adapt=2/b_bias=0/direct=3/weightb=1/open_gop=0/weightp=2/keyint=300/keyint_min=29/scenecut=40/intra_refresh=0/rc_lookahead=60/rc=2pass/mbtree=0/bitrate=1278/ratetol=1.0/qcomp=0.60/qpmin=0/qpmax=69/qpstep=4/cplxblur=20.0/qblur=0.5/vbv_maxrate=50000/vbv_bufsize=62500/nal_hrd=none/filler=0/ip_ratio=1.40/pb_ratio=1.30/aq=1: 1.00
    Язык : English
    Default : Да
    Forced : Нет
    Аудио
    Идентификатор : 2
    Формат : AC-3
    Формат/Информация : Audio Coding 3
    Идентификатор кодека : A_AC3
    Продолжительность : 2 ч. 12 м.
    Вид битрейта : Постоянный
    Битрейт : 192 Кбит/сек
    Каналы : 2 канала
    Расположение каналов : Front: L R
    Частота : 48, 0 КГц
    Частота кадров : 31, 250 кадров/сек (1536 SPF)
    Битовая глубина : 16 бит
    Метод сжатия : С потерями
    Размер потока : 182 Мбайт (13%)
    Заголовок : Дублированный \'\'Blu-ray CEE\'\' с вставками любительского псевдо-дубляжа \'\'Dars Group\'\' (AC-3, Постоянный, 192 Кбит/сек, 2 канала, 48, 0 КГц, 16 бит)
    Язык : Russian
    ServiceKind/String : Complete Main
    Default : Да
    Forced : Нет

    Скриншоты для ознакомления



    Все одноименные релизы в Клубе
    Время раздачи: 24/7 до первых 10 скачавших, потом ухожу с раздачи


    Бойфренд из будущего/About Time (2013) HDRip [H.264] [Hand Made Extended Cut]
    Рейтинг →
     (голосов: 1, оценка 4/5, голосовать можно 1 раз )

    Другие торренты по теме:



      Комментарии (0):

      Информация

      Информация

        Посетители, находящиеся в группе Гости, не могут оставлять комментарии в данной новости.

        ↓ Меню




        ↓ Опрос

        Вы добавили сайт в закладки?
        Да
        Нет


        Top 10 за месяц (Другое)