.
Авторизация | Регистрация
Хочешь лучшие торренты? Добавь свой email!
Добавить

Торрент скачать бесплатно

» » Американский пирог: Музыкальный лагерь / American Pie Presents Band Camp (2005) HDTVRip [H.264] [Hand Made Extended Cut] торрент скачать бесплатно


    Американский пирог: Музыкальный лагерь / American Pie Presents Band Camp (2005) HDTVRip [H.264] [Hand Made Extended Cut] торрент скачать бесплатно

    Опубликовал: Админ | Дата: 1-01-2018, 05:01 | .torrent скачали: 0

    Американский пирог: Музыкальный лагерь / American Pie Presents Band Camp (2005) HDTVRip [H.264] [Hand Made Extended Cut]Производство: США/Capital Arts Entertainment, Rogue Pictures, Universal Pictures
    Жанр: Комедия
    Режиссер: Стив Рэш

    Актеры
    Юджин Леви, Тэд Хилдженбринк, Ариэль Кеббел, Джейсон Эрлз, Кристл Лайтнинг, Джан Хи Ли, Мэтт Барр, Крис Оуэн, Лорен С. Мэйхью, Анджела Литтл

    Описание

    Серия Американский пирог представляет Музыкальный лагерь. Младший брат Стифлера Мэтт приговорен к летним каникулам в лагере, где он устраивает массу проделок с помощью скрытых камер и других не менее отвязных обитателей. Его поведение становится совсем возмутительным, после дружбы с членом банды по имени Элайз. Папа Джима вновь появляется в роли мудрого наставника, который пытается помочь младшему брату Стифлера вернуться на путь истинный.

    Возраст: 16+ (зрителям, достигшим 16 лет)
    Рейтинг MPAA: R (лицам до 17 лет обязательно присутствие взрослого)
    Релиз от: MAG3131
    Продолжительность: 01: 46: 53
    Качество видео: HDTVRip
    Перевод: Дублированный с вставками любительского псевдо-дубляжа \'\'Dars Group\'\'
    Субтитры: Отсутствуют
    Видео: AVC/H.264, 720x400, ~1635 kbps, 25 fps
    Аудио: AC3, 2 ch, 192 kbps
    Данная версия фильма на Blu-Ray не выходила как расширенная версия. Поэтому это Неофициальная (фанатная) версия. Добавленные сцены отличаются по качеству видео от самого фильма.

    Общее
    Уникальный идентификатор : 174784514482692050822629395797350151084 (0x837E45E503D0BF664F90A67E1685F3AC)
    Полное имя : Американский пирог - 04 \'\'Музыкальный лагерь\'\' (Расширенная версия) (American Pie - 04 \'\'Band Camp\'\') (Extended Cut).mkv
    Формат : Matroska
    Версия формата : Version 2
    Размер файла : 1, 37 Гбайт
    Продолжительность : 1 ч. 46 м.
    Общий поток : 1829 Кбит/сек
    Дата кодирования : UTC 2017-12-30 00: 44: 45
    Программа кодирования : mkvmerge v19.0.0 (\'Brave Captain\') 64-bit
    Библиотека кодирования : libebml v1.3.5 + libmatroska v1.4.8
    Видео
    Идентификатор : 1
    Формат : AVC
    Формат/Информация : Advanced Video Codec
    Профиль формата : High@L4.1
    Настройки формата : CABAC/12 Ref Frames
    Параметр CABAC формата : Да
    Параметр RefFrames формата : 12 кадров
    Идентификатор кодека : V_MPEG4/ISO/AVC
    Продолжительность : 1 ч. 46 м.
    Битрейт : 1635 Кбит/сек
    Ширина : 720 пикселей
    Высота : 400 пикселей
    Соотношение сторон : 16: 9
    Режим частоты кадров : Постоянный
    Частота кадров : 25, 000 кадров/сек
    Цветовое пространство : YUV
    Субдискретизация насыщенности : 4: 2: 0
    Битовая глубина : 8 бит
    Тип развёртки : Прогрессивная
    Бит/(Пиксели*Кадры) : 0.227
    Размер потока : 1, 19 Гбайт (88%)
    Заголовок : Американский пирог - 04 \'\'Музыкальный лагерь\'\' (Расширенная версия) (American Pie - 04 \'\'Band Camp\'\') (Extended Cut)
    Библиотека кодирования : x264 core 152 r2851 ba24899
    Настройки программы : cabac=1/ref=12/deblock=1: -1: -1/analyse=0x3: 0x133/me=umh/subme=11/psy=1/psy_rd=1.00: 0.15/mixed_ref=1/me_range=64/chroma_me=1/trellis=2/8x8dct=1/cqm=0/deadzone=21, 11/fast_pskip=0/chroma_qp_offset=-3/threads=6/lookahead_threads=1/sliced_threads=0/nr=0/decimate=0/interlaced=0/bluray_compat=0/constrained_intra=0/bframes=16/b_pyramid=2/b_adapt=2/b_bias=0/direct=3/weightb=1/open_gop=0/weightp=2/keyint=250/keyint_min=25/scenecut=40/intra_refresh=0/rc_lookahead=60/rc=2pass/mbtree=0/bitrate=1635/ratetol=1.0/qcomp=0.60/qpmin=0/qpmax=69/qpstep=4/cplxblur=20.0/qblur=0.5/vbv_maxrate=50000/vbv_bufsize=62500/nal_hrd=none/filler=0/ip_ratio=1.40/pb_ratio=1.30/aq=1: 1.00
    Язык : English
    Default : Да
    Forced : Нет
    Аудио
    Идентификатор : 2
    Формат : AC-3
    Формат/Информация : Audio Coding 3
    Идентификатор кодека : A_AC3
    Продолжительность : 1 ч. 46 м.
    Вид битрейта : Постоянный
    Битрейт : 192 Кбит/сек
    Каналы : 2 канала
    Расположение каналов : Front: L R
    Частота : 48, 0 КГц
    Частота кадров : 31, 250 кадров/сек (1536 SPF)
    Битовая глубина : 16 бит
    Метод сжатия : С потерями
    Размер потока : 147 Мбайт (10%)
    Заголовок : Дублированный \'\'Пифагор\'\' с вставками любительского псевдо-дубляжа \'\'Dars Group\'\' (AC-3, Постоянный, 192 Кбит/сек, 2 канала, 48, 0 КГц, 16 бит)
    Язык : Russian
    ServiceKind/String : Complete Main
    Default : Да
    Forced : Нет

    Скриншоты для ознакомления



    Все одноименные релизы в Клубе
    Время раздачи: 24/7 до первых 10 скачавших, потом ухожу с раздачи


    Американский пирог: Музыкальный лагерь/American Pie Presents Band Camp (2005) HDTVRip [H.264] [Hand Made Extended Cut]
    Рейтинг →
     (голосов: 1, оценка 3/5, голосовать можно 1 раз )

    Другие торренты по теме:

  • Американский пирог / American Pie [Unrated Cut] (1999) BDRip [H.265 / 1080p]
  • Американский пирог: Все в сборе / American Reunion (2012) BDRip [H.265 / 1080p-LQ]
  • Американский пирог / American Pie (1999) HDRip [H.264] [Hand Made Extended Cut]
  • Американский пирог 3: Свадьба / American Wedding (2003) HDRip [H.264] [Hand Made Extended Cut]
  • Американский пирог: Все в сборе / American Reunion (2012) HDRip [H.264] [Hand Made Extended Unrated Cut]


    • Комментарии (0):

      Информация

      Информация

        Посетители, находящиеся в группе Гости, не могут оставлять комментарии в данной новости.

        ↓ Меню




        ↓ Опрос

        Вы добавили сайт в закладки?
        Да
        Нет


        Top 10 за месяц (Другое)