.
Авторизация | Регистрация
Хочешь лучшие торренты? Добавь свой email!
Добавить

Торрент скачать бесплатно

  • support: webmaster@btracker.org
» » Сборник клипов - Ballads and Lyrics от ALEXnROCK (2017) WEBRip [H.264 / 720p-LQ] (часть 3) торрент скачать бесплатно


    Сборник клипов - Ballads and Lyrics от ALEXnROCK (2017) WEBRip [H.264 / 720p-LQ] (часть 3) торрент скачать бесплатно

    Опубликовал: Админ | Дата: 27-12-2017, 05:00 | .torrent скачали: 3

    Сборник клипов - Ballads and Lyrics от ALEXnROCK (2017) WEBRip [H.264 / 720p-LQ] (часть 3)Название: Ballads and Lyrics от ALEXnROCK
    Жанр: Pop, Rock
    Год выпуска: 2017
    Продолжительность: 03: 48: 15
    Доп. информация
    Этот сборник клипов я собирал когда то для девушки которую очень любил и вложил в него всю свою душу. Каждый кто любил по настоящему, найдет в нем частицу себя. Это 3я часть сборника. Смотрите, слушайте и наслаждайтесь. Все лучшее для вас. ALEXnROCK
    Ремастеринг видео, звук заменил на CD.
    Формат: MKV
    Качество: DVDRip
    Видео кодек : H264
    Видео : 1280x720 (16x9) 1280x896 (4x3) 25 fps (High@L4) 3400kbps
    Аудио : PCM 2.0, 48KHz, 1536kbps
    Треклист:
    000 Intro
    103 Rod Stewart - Rhythm Of My Heart
    104 Richard Marx - Right Here Waiting
    105 Александр Иванов - Ну и пусть
    106 Kansas - Dust in the wind
    107 Natalie Imbruglia - Torn
    108 Челси - Самая любимая
    109 Blue - Curtain Falls
    110 Metallica - Nothing Else Matters
    111 Ляпис Трубецкой - В платье белом
    112 Alannah Myles - Black Velvet
    113 Sade - Paradise
    114 Владимир Кузьмин - Небеса
    115 Michael Learns To Rock - Sleeping Child
    116 Nickelback - Far Away
    117 Григорий Лепс - Рюмка водки на столе
    118 Richard Marx - Hazard
    119 Jon Lennon - Imagine
    120 Челси - Почему
    121 Enigma - Sadeness
    122 Michael Learns To Rock - Someday
    123 Stevie Wonder - I Just Called To Say I Love You
    124 Лицей - Осень
    125 Foreigner - I Want To Know What Love
    126 Blue - One Love
    127 Макарский Петкун Голубев - Belle
    128 Motley Crue - Without You
    129 Natalie Imbruglia - Wrong Impression
    130 Gorky Park - Stranger
    131 Рондо - Ночь
    132 Nazareth - Love Hurts (OST Scarlett)
    133 Skid Row - Quicksand Jesus
    134 Вера Брежнева и Dan Balan - Лепестками Слёз
    135 Scorpions - Wind Of Change
    136 NANA - Lonely
    137 Ляпис Трубецкой - Юность
    138 Eros Ramazzotti - Piu Bella Cosa
    139 Jennifer Rush - The Power Of Love
    140 Челси - Не хватает её глаз
    141 Jon Bon Jovi - Blaze Of Glory
    142 Alesha Dixon - Radio
    143 Михаил круг - Кольщик
    144 Paul McCartney - Hope Of Deliverance
    145 Elton John - Sacrifice
    146 Dashboard Confessional - Vindicated
    147 Корни - Вика
    148 Eros Ramazzotti - Quanto Amore Sei
    149 Michael Learns To Rock - Blue Night
    150 МакSим - На Радиоволнах
    151 3 Doors Down - Let Me Go
    152 Mylene Farmer - California
    153 Def Leppard - Have You Ever Needed Some One So Bad
    154 Воскресение - Не торопясь
    155 Aerosmith - Cryin
    156 Sugababes - Shape

    Общее
    Уникальный идентификатор : 254749867716902687328447549099210353673 (0xBFA70A34088E55ACACE715CEA37AAC09)
    Полное имя : Ballads from ALEXnROCK mkv Disc 300 Intro.mkv
    Формат : Matroska
    Версия формата : Version 4/Version 2
    Размер файла : 35, 6 Мбайт
    Продолжительность : 1 м. 1 с.
    Общий поток : 4836 Кбит/сек
    Дата кодирования : UTC 2017-07-14 21: 06: 26
    Программа кодирования : mkvmerge v9.8.0 (\'Kuglblids\') 64bit
    Библиотека кодирования : libebml v1.3.4 + libmatroska v1.4.5
    Видео
    Идентификатор : 1
    Формат : AVC
    Формат/Информация : Advanced Video Codec
    Профиль формата : High@L4
    Настройки формата : CABAC/4 Ref Frames
    Параметр CABAC формата : Да
    Параметр RefFrames формата : 4 кадра
    Идентификатор кодека : V_MPEG4/ISO/AVC
    Продолжительность : 1 м. 1 с.
    Битрейт : 3400 Кбит/сек
    Ширина : 1280 пикселей
    Высота : 720 пикселей
    Соотношение сторон : 16: 9
    Режим частоты кадров : Постоянный
    Частота кадров : 29, 970 (30000/1001) кадров/сек
    Частота кадров в оригинале : 29, 970 (29970/1000) кадров/сек
    Цветовое пространство : YUV
    Субдискретизация насыщенности : 4: 2: 0
    Битовая глубина : 8 бит
    Тип развёртки : Прогрессивная
    Бит/(Пиксели*Кадры) : 0.123
    Размер потока : 24, 3 Мбайт (68%)
    Библиотека кодирования : x264 core 146 r2538 121396c
    Настройки программы : cabac=1/ref=3/deblock=1: -1: -1/analyse=0x3: 0x113/me=hex/subme=7/psy=1/psy_rd=1.00: 0.20/mixed_ref=1/me_range=16/chroma_me=1/trellis=1/8x8dct=1/cqm=0/deadzone=21, 11/fast_pskip=1/chroma_qp_offset=-3/threads=12/lookahead_threads=2/sliced_threads=0/nr=0/decimate=0/interlaced=0/bluray_compat=0/constrained_intra=0/bframes=3/b_pyramid=2/b_adapt=1/b_bias=0/direct=3/weightb=1/open_gop=0/weightp=2/keyint=250/keyint_min=25/scenecut=40/intra_refresh=0/rc_lookahead=40/rc=2pass/mbtree=1/bitrate=3400/ratetol=1.0/qcomp=0.60/qpmin=0/qpmax=69/qpstep=4/cplxblur=20.0/qblur=0.5/vbv_maxrate=14000/vbv_bufsize=14000/nal_hrd=none/filler=0/ip_ratio=1.40/aq=1: 1.00
    Default : Да
    Forced : Нет
    Аудио
    Идентификатор : 2
    Формат : PCM
    Идентификатор кодека : A_PCM/INT/LIT
    Продолжительность : 1 м. 1 с.
    Вид битрейта : Постоянный
    Битрейт : 1536 Кбит/сек
    Каналы : 2 канала
    Частота : 48, 0 КГц
    Частота кадров : 32, 004 кадра/сек (1500 SPF)
    Битовая глубина : 16 бит
    Размер потока : 11, 3 Мбайт (32%)
    Default : Да
    Forced : Нет
    Общее
    Уникальный идентификатор : 229675098991159879349913811463730321908 (0xACC9D0A7F344E5C696505BB9790759F4)
    Полное имя : E: баладыBallads from ALEXnROCKмквBallads videoclips Disc 3 mkvBallads from ALEXnROCK mkv Disc 3103 Rod Stewart - Rhythm Of My Heart.mkv
    Формат : Matroska
    Версия формата : Version 4/Version 2
    Размер файла : 149 Мбайт
    Продолжительность : 4 м. 13 с.
    Общий поток : 4937 Кбит/сек
    Дата кодирования : UTC 2017-05-30 12: 23: 44
    Программа кодирования : mkvmerge v9.8.0 (\'Kuglblids\') 64bit
    Библиотека кодирования : libebml v1.3.4 + libmatroska v1.4.5
    Видео
    Идентификатор : 1
    Формат : AVC
    Формат/Информация : Advanced Video Codec
    Профиль формата : High@L4
    Настройки формата : CABAC/4 Ref Frames
    Параметр CABAC формата : Да
    Параметр RefFrames формата : 4 кадра
    Идентификатор кодека : V_MPEG4/ISO/AVC
    Продолжительность : 4 м. 13 с.
    Битрейт : 3400 Кбит/сек
    Ширина : 1280 пикселей
    Высота : 896 пикселей
    Соотношение сторон : 1, 429
    Режим частоты кадров : Постоянный
    Частота кадров : 25, 000 кадров/сек
    Цветовое пространство : YUV
    Субдискретизация насыщенности : 4: 2: 0
    Битовая глубина : 8 бит
    Тип развёртки : Прогрессивная
    Бит/(Пиксели*Кадры) : 0.119
    Размер потока : 103 Мбайт (69%)
    Библиотека кодирования : x264 core 146 r2538 121396c
    Настройки программы : cabac=1/ref=3/deblock=1: -1: -1/analyse=0x3: 0x113/me=hex/subme=7/psy=1/psy_rd=1.00: 0.20/mixed_ref=1/me_range=16/chroma_me=1/trellis=1/8x8dct=1/cqm=0/deadzone=21, 11/fast_pskip=1/chroma_qp_offset=-3/threads=12/lookahead_threads=2/sliced_threads=0/nr=0/decimate=0/interlaced=0/bluray_compat=0/constrained_intra=0/bframes=3/b_pyramid=2/b_adapt=1/b_bias=0/direct=3/weightb=1/open_gop=0/weightp=2/keyint=250/keyint_min=25/scenecut=40/intra_refresh=0/rc_lookahead=40/rc=2pass/mbtree=1/bitrate=3400/ratetol=1.0/qcomp=0.60/qpmin=0/qpmax=69/qpstep=4/cplxblur=20.0/qblur=0.5/vbv_maxrate=14000/vbv_bufsize=14000/nal_hrd=none/filler=0/ip_ratio=1.40/aq=1: 1.00
    Default : Да
    Forced : Нет
    Аудио
    Идентификатор : 2
    Формат : PCM
    Идентификатор кодека : A_PCM/INT/LIT
    Продолжительность : 4 м. 13 с.
    Вид битрейта : Постоянный
    Битрейт : 1536 Кбит/сек
    Каналы : 2 канала
    Частота : 48, 0 КГц
    Частота кадров : 32, 004 кадра/сек (1500 SPF)
    Битовая глубина : 16 бит
    Размер потока : 46, 5 Мбайт (31%)
    Default : Да
    Forced : Нет
    Общее
    Уникальный идентификатор : 193909708644827286704585409737315130699 (0x91E1A6C4AEE75C67B4EE2272B5791D4B)
    Полное имя : E: баладыBallads from ALEXnROCKмквBallads videoclips Disc 3 mkvBallads from ALEXnROCK mkv Disc 3104 Richard Marx - Right Here Waiting.mkv
    Формат : Matroska
    Версия формата : Version 4/Version 2
    Размер файла : 154 Мбайт
    Продолжительность : 4 м. 22 с.
    Общий поток : 4927 Кбит/сек
    Дата кодирования : UTC 2017-05-30 13: 18: 32
    Программа кодирования : mkvmerge v9.8.0 (\'Kuglblids\') 64bit
    Библиотека кодирования : libebml v1.3.4 + libmatroska v1.4.5
    Видео
    Идентификатор : 1
    Формат : AVC
    Формат/Информация : Advanced Video Codec
    Профиль формата : High@L4
    Настройки формата : CABAC/4 Ref Frames
    Параметр CABAC формата : Да
    Параметр RefFrames формата : 4 кадра
    Идентификатор кодека : V_MPEG4/ISO/AVC
    Продолжительность : 4 м. 22 с.
    Битрейт : 3400 Кбит/сек
    Ширина : 1280 пикселей
    Высота : 912 пикселей
    Соотношение сторон : 1, 404
    Режим частоты кадров : Постоянный
    Частота кадров : 29, 970 (30000/1001) кадров/сек
    Цветовое пространство : YUV
    Субдискретизация насыщенности : 4: 2: 0
    Битовая глубина : 8 бит
    Тип развёртки : Прогрессивная
    Бит/(Пиксели*Кадры) : 0.097
    Размер потока : 106 Мбайт (69%)
    Библиотека кодирования : x264 core 146 r2538 121396c
    Настройки программы : cabac=1/ref=3/deblock=1: -1: -1/analyse=0x3: 0x113/me=hex/subme=7/psy=1/psy_rd=1.00: 0.20/mixed_ref=1/me_range=16/chroma_me=1/trellis=1/8x8dct=1/cqm=0/deadzone=21, 11/fast_pskip=1/chroma_qp_offset=-3/threads=12/lookahead_threads=2/sliced_threads=0/nr=0/decimate=0/interlaced=0/bluray_compat=0/constrained_intra=0/bframes=3/b_pyramid=2/b_adapt=1/b_bias=0/direct=3/weightb=1/open_gop=0/weightp=2/keyint=250/keyint_min=25/scenecut=40/intra_refresh=0/rc_lookahead=40/rc=2pass/mbtree=1/bitrate=3400/ratetol=1.0/qcomp=0.60/qpmin=0/qpmax=69/qpstep=4/cplxblur=20.0/qblur=0.5/vbv_maxrate=14000/vbv_bufsize=14000/nal_hrd=none/filler=0/ip_ratio=1.40/aq=1: 1.00
    Default : Да
    Forced : Нет
    Аудио
    Идентификатор : 2
    Формат : PCM
    Идентификатор кодека : A_PCM/INT/LIT
    Продолжительность : 4 м. 20 с.
    Вид битрейта : Постоянный
    Битрейт : 1536 Кбит/сек
    Каналы : 2 канала
    Частота : 48, 0 КГц
    Частота кадров : 32, 002 кадра/сек (1500 SPF)
    Битовая глубина : 16 бит
    Размер потока : 47, 7 Мбайт (31%)
    Default : Да
    Forced : Нет
    Общее
    Уникальный идентификатор : 217295571151688425828353516214810279763 (0xA3799ACF5909A431BC0324D01D2B7F53)
    Полное имя : E: баладыBallads from ALEXnROCKмквBallads videoclips Disc 3 mkvBallads from ALEXnROCK mkv Disc 3105 Александр Иванов - Ну и пусть.mkv
    Формат : Matroska
    Версия формата : Version 4/Version 2
    Размер файла : 137 Мбайт
    Продолжительность : 3 м. 53 с.
    Общий поток : 4933 Кбит/сек
    Дата кодирования : UTC 2017-01-31 11: 11: 29
    Программа кодирования : mkvmerge v8.3.0 (\'Over the Horizon\') 64bit
    Библиотека кодирования : libebml v1.3.1 + libmatroska v1.4.2
    Видео
    Идентификатор : 1
    Формат : AVC
    Формат/Информация : Advanced Video Codec
    Профиль формата : High@L4
    Настройки формата : CABAC/4 Ref Frames
    Параметр CABAC формата : Да
    Параметр RefFrames формата : 4 кадра
    Идентификатор кодека : V_MPEG4/ISO/AVC
    Продолжительность : 3 м. 53 с.
    Битрейт : 3401 Кбит/сек
    Ширина : 1280 пикселей
    Высота : 888 пикселей
    Соотношение сторон : 1, 441
    Режим частоты кадров : Постоянный
    Частота кадров : 25, 000 кадров/сек
    Цветовое пространство : YUV
    Субдискретизация насыщенности : 4: 2: 0
    Битовая глубина : 8 бит
    Тип развёртки : Прогрессивная
    Бит/(Пиксели*Кадры) : 0.120
    Размер потока : 94, 4 Мбайт (69%)
    Библиотека кодирования : x264 core 146 r2538 121396c
    Настройки программы : cabac=1/ref=3/deblock=1: -1: -1/analyse=0x3: 0x113/me=hex/subme=7/psy=1/psy_rd=1.00: 0.20/mixed_ref=1/me_range=16/chroma_me=1/trellis=1/8x8dct=1/cqm=0/deadzone=21, 11/fast_pskip=1/chroma_qp_offset=-3/threads=12/lookahead_threads=2/sliced_threads=0/nr=0/decimate=0/interlaced=0/bluray_compat=0/constrained_intra=0/bframes=3/b_pyramid=2/b_adapt=1/b_bias=0/direct=3/weightb=1/open_gop=0/weightp=2/keyint=250/keyint_min=25/scenecut=40/intra_refresh=0/rc_lookahead=40/rc=2pass/mbtree=1/bitrate=3401/ratetol=1.0/qcomp=0.60/qpmin=0/qpmax=69/qpstep=4/cplxblur=20.0/qblur=0.5/vbv_maxrate=14000/vbv_bufsize=14000/nal_hrd=none/filler=0/ip_ratio=1.40/aq=1: 1.00
    Default : Да
    Forced : Нет
    Аудио
    Идентификатор : 2
    Формат : PCM
    Идентификатор кодека : A_PCM/INT/LIT
    Продолжительность : 3 м. 53 с.
    Вид битрейта : Постоянный
    Битрейт : 1536 Кбит/сек
    Каналы : 2 канала
    Частота : 48, 0 КГц
    Частота кадров : 32, 003 кадра/сек (1500 SPF)
    Битовая глубина : 16 бит
    Размер потока : 42, 7 Мбайт (31%)
    Default : Да
    Forced : Нет
    Общее
    Уникальный идентификатор : 235379717786695447839523546177880756563 (0xB1147C13E6ED86278CA46E768D349153)
    Полное имя : E: баладыBallads from ALEXnROCKмквBallads videoclips Disc 3 mkvBallads from ALEXnROCK mkv Disc 3106 Kansas - Dust in the wind.mkv
    Формат : Matroska
    Версия формата : Version 4/Version 2
    Размер файла : 117 Мбайт
    Продолжительность : 3 м. 19 с.
    Общий поток : 4935 Кбит/сек
    Дата кодирования : UTC 2017-05-30 15: 18: 36
    Программа кодирования : mkvmerge v9.8.0 (\'Kuglblids\') 64bit
    Библиотека кодирования : libebml v1.3.4 + libmatroska v1.4.5
    Видео
    Идентификатор : 1
    Формат : AVC
    Формат/Информация : Advanced Video Codec
    Профиль формата : High@L4
    Настройки формата : CABAC/4 Ref Frames
    Параметр CABAC формата : Да
    Параметр RefFrames формата : 4 кадра
    Идентификатор кодека : V_MPEG4/ISO/AVC
    Продолжительность : 3 м. 19 с.
    Битрейт : 3400 Кбит/сек
    Ширина : 1280 пикселей
    Высота : 912 пикселей
    Соотношение сторон : 1, 404
    Режим частоты кадров : Постоянный
    Частота кадров : 25, 000 кадров/сек
    Цветовое пространство : YUV
    Субдискретизация насыщенности : 4: 2: 0
    Битовая глубина : 8 бит
    Тип развёртки : Прогрессивная
    Бит/(Пиксели*Кадры) : 0.117
    Размер потока : 81, 0 Мбайт (69%)
    Библиотека кодирования : x264 core 146 r2538 121396c
    Настройки программы : cabac=1/ref=3/deblock=1: -1: -1/analyse=0x3: 0x113/me=hex/subme=7/psy=1/psy_rd=1.00: 0.20/mixed_ref=1/me_range=16/chroma_me=1/trellis=1/8x8dct=1/cqm=0/deadzone=21, 11/fast_pskip=1/chroma_qp_offset=-3/threads=12/lookahead_threads=2/sliced_threads=0/nr=0/decimate=0/interlaced=0/bluray_compat=0/constrained_intra=0/bframes=3/b_pyramid=2/b_adapt=1/b_bias=0/direct=3/weightb=1/open_gop=0/weightp=2/keyint=250/keyint_min=25/scenecut=40/intra_refresh=0/rc_lookahead=40/rc=2pass/mbtree=1/bitrate=3400/ratetol=1.0/qcomp=0.60/qpmin=0/qpmax=69/qpstep=4/cplxblur=20.0/qblur=0.5/vbv_maxrate=14000/vbv_bufsize=14000/nal_hrd=none/filler=0/ip_ratio=1.40/aq=1: 1.00
    Default : Да
    Forced : Нет
    Аудио
    Идентификатор : 2
    Формат : PCM
    Идентификатор кодека : A_PCM/INT/LIT
    Продолжительность : 3 м. 19 с.
    Вид битрейта : Постоянный
    Битрейт : 1536 Кбит/сек
    Каналы : 2 канала
    Частота : 48, 0 КГц
    Частота кадров : 32, 003 кадра/сек (1500 SPF)
    Битовая глубина : 16 бит
    Размер потока : 36, 5 Мбайт (31%)
    Default : Да
    Forced : Нет
    Общее
    Уникальный идентификатор : 232899303133881429194044024126348533281 (0xAF36C6318751519191D160BBF1751E21)
    Полное имя : E: баладыBallads from ALEXnROCKмквBallads videoclips Disc 3 mkvBallads from ALEXnROCK mkv Disc 3107 Natalie Imbruglia - Torn.mkv
    Формат : Matroska
    Версия формата : Version 4/Version 2
    Размер файла : 143 Мбайт
    Продолжительность : 4 м. 2 с.
    Общий поток : 4935 Кбит/сек
    Дата кодирования : UTC 2017-03-19 21: 01: 39
    Программа кодирования : mkvmerge v9.8.0 (\'Kuglblids\') 64bit
    Библиотека кодирования : libebml v1.3.4 + libmatroska v1.4.5
    Видео
    Идентификатор : 1
    Формат : AVC
    Формат/Информация : Advanced Video Codec
    Профиль формата : High@L4
    Настройки формата : CABAC/4 Ref Frames
    Параметр CABAC формата : Да
    Параметр RefFrames формата : 4 кадра
    Идентификатор кодека : V_MPEG4/ISO/AVC
    Продолжительность : 4 м. 2 с.
    Битрейт : 3401 Кбит/сек
    Ширина : 1280 пикселей
    Высота : 904 пикселя
    Соотношение сторон : 1, 416
    Режим частоты кадров : Постоянный
    Частота кадров : 25, 000 кадров/сек
    Цветовое пространство : YUV
    Субдискретизация насыщенности : 4: 2: 0
    Битовая глубина : 8 бит
    Тип развёртки : Прогрессивная
    Бит/(Пиксели*Кадры) : 0.118
    Размер потока : 98, 4 Мбайт (69%)
    Библиотека кодирования : x264 core 146 r2538 121396c
    Настройки программы : cabac=1/ref=3/deblock=1: -1: -1/analyse=0x3: 0x113/me=hex/subme=7/psy=1/psy_rd=1.00: 0.20/mixed_ref=1/me_range=16/chroma_me=1/trellis=1/8x8dct=1/cqm=0/deadzone=21, 11/fast_pskip=1/chroma_qp_offset=-3/threads=12/lookahead_threads=2/sliced_threads=0/nr=0/decimate=0/interlaced=0/bluray_compat=0/constrained_intra=0/bframes=3/b_pyramid=2/b_adapt=1/b_bias=0/direct=3/weightb=1/open_gop=0/weightp=2/keyint=250/keyint_min=25/scenecut=40/intra_refresh=0/rc_lookahead=40/rc=2pass/mbtree=1/bitrate=3401/ratetol=1.0/qcomp=0.60/qpmin=0/qpmax=69/qpstep=4/cplxblur=20.0/qblur=0.5/vbv_maxrate=14000/vbv_bufsize=14000/nal_hrd=none/filler=0/ip_ratio=1.40/aq=1: 1.00
    Default : Да
    Forced : Нет
    Аудио
    Идентификатор : 2
    Формат : PCM
    Идентификатор кодека : A_PCM/INT/LIT
    Продолжительность : 4 м. 1 с.
    Вид битрейта : Постоянный
    Битрейт : 1536 Кбит/сек
    Каналы : 2 канала
    Частота : 48, 0 КГц
    Частота кадров : 32, 001 кадра/сек (1500 SPF)
    Битовая глубина : 16 бит
    Размер потока : 44, 2 Мбайт (31%)
    Default : Да
    Forced : Нет
    Общее
    Уникальный идентификатор : 220445701321386248564206172756115997760 (0xA5D84C37F18A0F35AED88BC2DFF84440)
    Полное имя : E: баладыBallads from ALEXnROCKмквBallads videoclips Disc 3 mkvBallads from ALEXnROCK mkv Disc 3108 Челси - Самая любимая.mkv
    Формат : Matroska
    Версия формата : Version 4/Version 2
    Размер файла : 124 Мбайт
    Продолжительность : 3 м. 31 с.
    Общий поток : 4931 Кбит/сек
    Дата кодирования : UTC 2017-06-05 17: 23: 54
    Программа кодирования : mkvmerge v9.8.0 (\'Kuglblids\') 64bit
    Библиотека кодирования : libebml v1.3.4 + libmatroska v1.4.5
    Видео
    Идентификатор : 1
    Формат : AVC
    Формат/Информация : Advanced Video Codec
    Профиль формата : High@L4
    Настройки формата : CABAC/4 Ref Frames
    Параметр CABAC формата : Да
    Параметр RefFrames формата : 4 кадра
    Идентификатор кодека : V_MPEG4/ISO/AVC
    Продолжительность : 3 м. 31 с.
    Битрейт : 3400 Кбит/сек
    Ширина : 1280 пикселей
    Высота : 712 пикселей
    Соотношение сторон : 16: 9
    Режим частоты кадров : Постоянный
    Частота кадров : 25, 000 кадров/сек
    Цветовое пространство : YUV
    Субдискретизация насыщенности : 4: 2: 0
    Битовая глубина : 8 бит
    Тип развёртки : Прогрессивная
    Бит/(Пиксели*Кадры) : 0.149
    Размер потока : 85, 6 Мбайт (69%)
    Библиотека кодирования : x264 core 146 r2538 121396c
    Настройки программы : cabac=1/ref=3/deblock=1: -1: -1/analyse=0x3: 0x113/me=hex/subme=7/psy=1/psy_rd=1.00: 0.20/mixed_ref=1/me_range=16/chroma_me=1/trellis=1/8x8dct=1/cqm=0/deadzone=21, 11/fast_pskip=1/chroma_qp_offset=-3/threads=12/lookahead_threads=2/sliced_threads=0/nr=0/decimate=0/interlaced=0/bluray_compat=0/constrained_intra=0/bframes=3/b_pyramid=2/b_adapt=1/b_bias=0/direct=3/weightb=1/open_gop=0/weightp=2/keyint=250/keyint_min=25/scenecut=40/intra_refresh=0/rc_lookahead=40/rc=2pass/mbtree=1/bitrate=3400/ratetol=1.0/qcomp=0.60/qpmin=0/qpmax=69/qpstep=4/cplxblur=20.0/qblur=0.5/vbv_maxrate=14000/vbv_bufsize=14000/nal_hrd=none/filler=0/ip_ratio=1.40/aq=1: 1.00
    Default : Да
    Forced : Нет
    Аудио
    Идентификатор : 2
    Формат : PCM
    Идентификатор кодека : A_PCM/INT/LIT
    Продолжительность : 3 м. 31 с.
    Вид битрейта : Постоянный
    Битрейт : 1536 Кбит/сек
    Каналы : 2 канала
    Частота : 48, 0 КГц
    Частота кадров : 32, 002 кадра/сек (1500 SPF)
    Битовая глубина : 16 бит
    Размер потока : 38, 7 Мбайт (31%)
    Default : Да
    Forced : Нет
    Общее
    Уникальный идентификатор : 201991103384748558490407241847584934660 (0x97F6124A9A5A411BA04773AB51214B04)
    Полное имя : E: баладыBallads from ALEXnROCKмквBallads videoclips Disc 3 mkvBallads from ALEXnROCK mkv Disc 3109 Blue - Curtain Falls.mkv
    Формат : Matroska
    Версия формата : Version 4/Version 2
    Размер файла : 141 Мбайт
    Продолжительность : 3 м. 58 с.
    Общий поток : 4940 Кбит/сек
    Дата кодирования : UTC 2017-05-30 17: 44: 52
    Программа кодирования : mkvmerge v9.8.0 (\'Kuglblids\') 64bit
    Библиотека кодирования : libebml v1.3.4 + libmatroska v1.4.5
    Видео
    Идентификатор : 1
    Формат : AVC
    Формат/Информация : Advanced Video Codec
    Профиль формата : High@L4
    Настройки формата : CABAC/4 Ref Frames
    Параметр CABAC формата : Да
    Параметр RefFrames формата : 4 кадра
    Идентификатор кодека : V_MPEG4/ISO/AVC
    Продолжительность : 3 м. 58 с.
    Битрейт : 3400 Кбит/сек
    Ширина : 1280 пикселей
    Высота : 632 пикселя
    Соотношение сторон : 2, 025
    Режим частоты кадров : Постоянный
    Частота кадров : 25, 000 кадров/сек
    Цветовое пространство : YUV
    Субдискретизация насыщенности : 4: 2: 0
    Битовая глубина : 8 бит
    Тип развёртки : Прогрессивная
    Бит/(Пиксели*Кадры) : 0.168
    Размер потока : 96, 8 Мбайт (69%)
    Библиотека кодирования : x264 core 146 r2538 121396c
    Настройки программы : cabac=1/ref=3/deblock=1: -1: -1/analyse=0x3: 0x113/me=hex/subme=7/psy=1/psy_rd=1.00: 0.20/mixed_ref=1/me_range=16/chroma_me=1/trellis=1/8x8dct=1/cqm=0/deadzone=21, 11/fast_pskip=1/chroma_qp_offset=-3/threads=12/lookahead_threads=2/sliced_threads=0/nr=0/decimate=0/interlaced=0/bluray_compat=0/constrained_intra=0/bframes=3/b_pyramid=2/b_adapt=1/b_bias=0/direct=3/weightb=1/open_gop=0/weightp=2/keyint=250/keyint_min=25/scenecut=40/intra_refresh=0/rc_lookahead=40/rc=2pass/mbtree=1/bitrate=3400/ratetol=1.0/qcomp=0.60/qpmin=0/qpmax=69/qpstep=4/cplxblur=20.0/qblur=0.5/vbv_maxrate=14000/vbv_bufsize=14000/nal_hrd=none/filler=0/ip_ratio=1.40/aq=1: 1.00
    Default : Да
    Forced : Нет
    Аудио
    Идентификатор : 2
    Формат : PCM
    Идентификатор кодека : A_PCM/INT/LIT
    Продолжительность : 3 м. 58 с.
    Вид битрейта : Постоянный
    Битрейт : 1536 Кбит/сек
    Каналы : 2 канала
    Частота : 48, 0 КГц
    Частота кадров : 32, 000 кадра/сек (1500 SPF)
    Битовая глубина : 16 бит
    Размер потока : 43, 7 Мбайт (31%)
    Default : Да
    Forced : Нет
    Общее
    Уникальный идентификатор : 179790826533867294777024657138679492459 (0x87427422B8137D89A7518883FD6F2F6B)
    Полное имя : E: баладыBallads from ALEXnROCKмквBallads videoclips Disc 3 mkvBallads from ALEXnROCK mkv Disc 3110 Metallica - Nothing Else Matters.mkv
    Формат : Matroska
    Версия формата : Version 2
    Размер файла : 227 Мбайт
    Продолжительность : 6 м. 25 с.
    Общий поток : 4938 Кбит/сек
    Дата кодирования : UTC 2017-05-29 20: 45: 15
    Программа кодирования : mkvmerge v7.8.0 (\'River Man\') 32bit built on Apr 3 2015 12: 11: 22
    Библиотека кодирования : libebml v1.3.1 + libmatroska v1.4.2
    Видео
    Идентификатор : 1
    Формат : AVC
    Формат/Информация : Advanced Video Codec
    Профиль формата : High@L4
    Настройки формата : CABAC/4 Ref Frames
    Параметр CABAC формата : Да
    Параметр RefFrames формата : 4 кадра
    Идентификатор кодека : V_MPEG4/ISO/AVC
    Продолжительность : 6 м. 25 с.
    Номинальный битрейт : 3400 Кбит/сек
    Ширина : 1280 пикселей
    Высота : 896 пикселей
    Соотношение сторон : 1, 429
    Режим частоты кадров : Постоянный
    Частота кадров : 29, 970 (30000/1001) кадров/сек
    Цветовое пространство : YUV
    Субдискретизация насыщенности : 4: 2: 0
    Битовая глубина : 8 бит
    Тип развёртки : Прогрессивная
    Бит/(Пиксели*Кадры) : 0.099
    Библиотека кодирования : x264 core 146 r2538 121396c
    Настройки программы : cabac=1/ref=3/deblock=1: -1: -1/analyse=0x3: 0x113/me=hex/subme=7/psy=1/psy_rd=1.00: 0.20/mixed_ref=1/me_range=16/chroma_me=1/trellis=1/8x8dct=1/cqm=0/deadzone=21, 11/fast_pskip=1/chroma_qp_offset=-3/threads=12/lookahead_threads=2/sliced_threads=0/nr=0/decimate=0/interlaced=0/bluray_compat=0/constrained_intra=0/bframes=3/b_pyramid=2/b_adapt=1/b_bias=0/direct=3/weightb=1/open_gop=0/weightp=2/keyint=250/keyint_min=25/scenecut=40/intra_refresh=0/rc_lookahead=40/rc=2pass/mbtree=1/bitrate=3400/ratetol=1.0/qcomp=0.60/qpmin=0/qpmax=69/qpstep=4/cplxblur=20.0/qblur=0.5/vbv_maxrate=14000/vbv_bufsize=14000/nal_hrd=none/filler=0/ip_ratio=1.40/aq=1: 1.00
    Default : Да
    Forced : Нет
    Аудио
    Идентификатор : 2
    Формат : PCM
    Идентификатор кодека : A_PCM/INT/LIT
    Продолжительность : 6 м. 25 с.
    Вид битрейта : Постоянный
    Каналы : 2 канала
    Частота : 48, 0 КГц
    Битовая глубина : 16 бит
    Default : Да
    Forced : Нет
    Общее
    Уникальный идентификатор : 207471348428116879536437079495341643407 (0x9C15873BA7A45B18BB2DCD4FEF32168F)
    Полное имя : E: баладыBallads from ALEXnROCKмквBallads videoclips Disc 3 mkvBallads from ALEXnROCK mkv Disc 3111 Ляпис Трубецкой - В платье белом.mkv
    Формат : Matroska
    Версия формата : Version 4/Version 2
    Размер файла : 172 Мбайт
    Продолжительность : 4 м. 52 с.
    Общий поток : 4937 Кбит/сек
    Дата кодирования : UTC 2017-02-12 16: 03: 25
    Программа кодирования : mkvmerge v9.8.0 (\'Kuglblids\') 64bit
    Библиотека кодирования : libebml v1.3.4 + libmatroska v1.4.5
    Видео
    Идентификатор : 1
    Формат : AVC
    Формат/Информация : Advanced Video Codec
    Профиль формата : High@L4
    Настройки формата : CABAC/4 Ref Frames
    Параметр CABAC формата : Да
    Параметр RefFrames формата : 4 кадра
    Идентификатор кодека : V_MPEG4/ISO/AVC
    Продолжительность : 4 м. 52 с.
    Битрейт : 3401 Кбит/сек
    Ширина : 1280 пикселей
    Высота : 720 пикселей
    Соотношение сторон : 16: 9
    Режим частоты кадров : Постоянный
    Частота кадров : 25, 000 кадров/сек
    Цветовое пространство : YUV
    Субдискретизация насыщенности : 4: 2: 0
    Битовая глубина : 8 бит
    Тип развёртки : Прогрессивная
    Бит/(Пиксели*Кадры) : 0.148
    Размер потока : 119 Мбайт (69%)
    Библиотека кодирования : x264 core 146 r2538 121396c
    Настройки программы : cabac=1/ref=3/deblock=1: -1: -1/analyse=0x3: 0x113/me=hex/subme=7/psy=1/psy_rd=1.00: 0.20/mixed_ref=1/me_range=16/chroma_me=1/trellis=1/8x8dct=1/cqm=0/deadzone=21, 11/fast_pskip=1/chroma_qp_offset=-3/threads=12/lookahead_threads=2/sliced_threads=0/nr=0/decimate=0/interlaced=0/bluray_compat=0/constrained_intra=0/bframes=3/b_pyramid=2/b_adapt=1/b_bias=0/direct=3/weightb=1/open_gop=0/weightp=2/keyint=250/keyint_min=25/scenecut=40/intra_refresh=0/rc_lookahead=40/rc=2pass/mbtree=1/bitrate=3401/ratetol=1.0/qcomp=0.60/qpmin=0/qpmax=69/qpstep=4/cplxblur=20.0/qblur=0.5/vbv_maxrate=14000/vbv_bufsize=14000/nal_hrd=none/filler=0/ip_ratio=1.40/aq=1: 1.00
    Default : Да
    Forced : Нет
    Аудио
    Идентификатор : 2
    Формат : PCM
    Идентификатор кодека : A_PCM/INT/LIT
    Продолжительность : 4 м. 51 с.
    Вид битрейта : Постоянный
    Битрейт : 1536 Кбит/сек
    Каналы : 2 канала
    Частота : 48, 0 КГц
    Частота кадров : 32, 001 кадра/сек (1500 SPF)
    Битовая глубина : 16 бит
    Размер потока : 53, 5 Мбайт (31%)
    Default : Да
    Forced : Нет
    Общее
    Уникальный идентификатор : 180864000874729828741433945884432636754 (0x881123B73B1E5A5A953F0B1AB04D9B52)
    Полное имя : E: баладыBallads from ALEXnROCKмквBallads videoclips Disc 3 mkvBallads from ALEXnROCK mkv Disc 3112 Alannah Myles - Black Velvet.mkv
    Формат : Matroska
    Версия формата : Version 4/Version 2
    Размер файла : 169 Мбайт
    Продолжительность : 4 м. 51 с.
    Общий поток : 4868 Кбит/сек
    Дата кодирования : UTC 2017-05-30 12: 55: 09
    Программа кодирования : mkvmerge v9.8.0 (\'Kuglblids\') 64bit
    Библиотека кодирования : libebml v1.3.4 + libmatroska v1.4.5
    Видео
    Идентификатор : 1
    Формат : AVC
    Формат/Информация : Advanced Video Codec
    Профиль формата : High@L4
    Настройки формата : CABAC/4 Ref Frames
    Параметр CABAC формата : Да
    Параметр RefFrames формата : 4 кадра
    Идентификатор кодека : V_MPEG4/ISO/AVC
    Продолжительность : 4 м. 46 с.
    Битрейт : 3400 Кбит/сек
    Ширина : 1280 пикселей
    Высота : 912 пикселей
    Соотношение сторон : 1, 404
    Режим частоты кадров : Постоянный
    Частота кадров : 29, 970 (30000/1001) кадров/сек
    Цветовое пространство : YUV
    Субдискретизация насыщенности : 4: 2: 0
    Битовая глубина : 8 бит
    Тип развёртки : Прогрессивная
    Бит/(Пиксели*Кадры) : 0.097
    Размер потока : 116 Мбайт (68%)
    Библиотека кодирования : x264 core 146 r2538 121396c
    Настройки программы : cabac=1/ref=3/deblock=1: -1: -1/analyse=0x3: 0x113/me=hex/subme=7/psy=1/psy_rd=1.00: 0.20/mixed_ref=1/me_range=16/chroma_me=1/trellis=1/8x8dct=1/cqm=0/deadzone=21, 11/fast_pskip=1/chroma_qp_offset=-3/threads=12/lookahead_threads=2/sliced_threads=0/nr=0/decimate=0/interlaced=0/bluray_compat=0/constrained_intra=0/bframes=3/b_pyramid=2/b_adapt=1/b_bias=0/direct=3/weightb=1/open_gop=0/weightp=2/keyint=250/keyint_min=25/scenecut=40/intra_refresh=0/rc_lookahead=40/rc=2pass/mbtree=1/bitrate=3400/ratetol=1.0/qcomp=0.60/qpmin=0/qpmax=69/qpstep=4/cplxblur=20.0/qblur=0.5/vbv_maxrate=14000/vbv_bufsize=14000/nal_hrd=none/filler=0/ip_ratio=1.40/aq=1: 1.00
    Default : Да
    Forced : Нет
    Аудио
    Идентификатор : 2
    Формат : PCM
    Идентификатор кодека : A_PCM/INT/LIT
    Продолжительность : 4 м. 51 с.
    Вид битрейта : Постоянный
    Битрейт : 1536 Кбит/сек
    Каналы : 2 канала
    Частота : 48, 0 КГц
    Частота кадров : 32, 000 кадра/сек (1500 SPF)
    Битовая глубина : 16 бит
    Размер потока : 53, 5 Мбайт (32%)
    Default : Да
    Forced : Нет
    Общее
    Уникальный идентификатор : 209827705972301562431902868019971939417 (0x9DDB58A12E1CFD64BDC9B8A73318DC59)
    Полное имя : E: баладыBallads from ALEXnROCKмквBallads videoclips Disc 3 mkvBallads from ALEXnROCK mkv Disc 3113 Sade - Paradise.mkv
    Формат : Matroska
    Версия формата : Version 4/Version 2
    Размер файла : 126 Мбайт
    Продолжительность : 3 м. 35 с.
    Общий поток : 4928 Кбит/сек
    Дата кодирования : UTC 2017-05-30 17: 10: 55
    Программа кодирования : mkvmerge v9.8.0 (\'Kuglblids\') 64bit
    Библиотека кодирования : libebml v1.3.4 + libmatroska v1.4.5
    Видео
    Идентификатор : 1
    Формат : AVC
    Формат/Информация : Advanced Video Codec
    Профиль формата : High@L4
    Настройки формата : CABAC/4 Ref Frames
    Параметр CABAC формата : Да
    Параметр RefFrames формата : 4 кадра
    Идентификатор кодека : V_MPEG4/ISO/AVC
    Продолжительность : 3 м. 35 с.
    Битрейт : 3400 Кбит/сек
    Ширина : 1280 пикселей
    Высота : 888 пикселей
    Соотношение сторон : 1, 441
    Режим частоты кадров : Постоянный
    Частота кадров : 29, 970 (30000/1001) кадров/сек
    Цветовое пространство : YUV
    Субдискретизация насыщенности : 4: 2: 0
    Битовая глубина : 8 бит
    Тип развёртки : Прогрессивная
    Бит/(Пиксели*Кадры) : 0.100
    Размер потока : 87, 0 Мбайт (69%)
    Библиотека кодирования : x264 core 146 r2538 121396c
    Настройки программы : cabac=1/ref=3/deblock=1: -1: -1/analyse=0x3: 0x113/me=hex/subme=7/psy=1/psy_rd=1.00: 0.20/mixed_ref=1/me_range=16/chroma_me=1/trellis=1/8x8dct=1/cqm=0/deadzone=21, 11/fast_pskip=1/chroma_qp_offset=-3/threads=12/lookahead_threads=2/sliced_threads=0/nr=0/decimate=0/interlaced=0/bluray_compat=0/constrained_intra=0/bframes=3/b_pyramid=2/b_adapt=1/b_bias=0/direct=3/weightb=1/open_gop=0/weightp=2/keyint=250/keyint_min=25/scenecut=40/intra_refresh=0/rc_lookahead=40/rc=2pass/mbtree=1/bitrate=3400/ratetol=1.0/qcomp=0.60/qpmin=0/qpmax=69/qpstep=4/cplxblur=20.0/qblur=0.5/vbv_maxrate=14000/vbv_bufsize=14000/nal_hrd=none/filler=0/ip_ratio=1.40/aq=1: 1.00
    Default : Да
    Forced : Нет
    Аудио
    Идентификатор : 2
    Формат : PCM
    Идентификатор кодека : A_PCM/INT/LIT
    Продолжительность : 3 м. 35 с.
    Вид битрейта : Постоянный
    Битрейт : 1536 Кбит/сек
    Каналы : 2 канала
    Частота : 48, 0 КГц
    Частота кадров : 32, 000 кадра/сек (1500 SPF)
    Битовая глубина : 16 бит
    Размер потока : 39, 4 Мбайт (31%)
    Default : Да
    Forced : Нет
    Общее
    Уникальный идентификатор : 222061254161114568690020926512368780157 (0xA70F711F8D8450898D52EF9990A9037D)
    Полное имя : E: баладыBallads from ALEXnROCKмквBallads videoclips Disc 3 mkvBallads from ALEXnROCK mkv Disc 3114 Владимир Кузьмин - Небеса.mkv
    Формат : Matroska
    Версия формата : Version 4/Version 2
    Размер файла : 162 Мбайт
    Продолжительность : 4 м. 35 с.
    Общий поток : 4942 Кбит/сек
    Дата кодирования : UTC 2017-02-22 18: 35: 42
    Программа кодирования : mkvmerge v9.8.0 (\'Kuglblids\') 64bit
    Библиотека кодирования : libebml v1.3.4 + libmatroska v1.4.5
    Видео
    Идентификатор : 1
    Формат : AVC
    Формат/Информация : Advanced Video Codec
    Профиль формата : High@L4
    Настройки формата : CABAC/4 Ref Frames
    Параметр CABAC формата : Да
    Параметр RefFrames формата : 4 кадра
    Идентификатор кодека : V_MPEG4/ISO/AVC
    Продолжительность : 4 м. 35 с.
    Битрейт : 3401 Кбит/сек
    Ширина : 1280 пикселей
    Высота : 688 пикселей
    Соотношение сторон : 1, 85: 1
    Режим частоты кадров : Постоянный
    Частота кадров : 25, 000 кадров/сек
    Цветовое пространство : YUV
    Субдискретизация насыщенности : 4: 2: 0
    Битовая глубина : 8 бит
    Тип развёртки : Прогрессивная
    Бит/(Пиксели*Кадры) : 0.154
    Размер потока : 112 Мбайт (69%)
    Библиотека кодирования : x264 core 146 r2538 121396c
    Настройки программы : cabac=1/ref=3/deblock=1: -1: -1/analyse=0x3: 0x113/me=hex/subme=7/psy=1/psy_rd=1.00: 0.20/mixed_ref=1/me_range=16/chroma_me=1/trellis=1/8x8dct=1/cqm=0/deadzone=21, 11/fast_pskip=1/chroma_qp_offset=-3/threads=12/lookahead_threads=2/sliced_threads=0/nr=0/decimate=0/interlaced=0/bluray_compat=0/constrained_intra=0/bframes=3/b_pyramid=2/b_adapt=1/b_bias=0/direct=3/weightb=1/open_gop=0/weightp=2/keyint=250/keyint_min=25/scenecut=40/intra_refresh=0/rc_lookahead=40/rc=2pass/mbtree=1/bitrate=3401/ratetol=1.0/qcomp=0.60/qpmin=0/qpmax=69/qpstep=4/cplxblur=20.0/qblur=0.5/vbv_maxrate=14000/vbv_bufsize=14000/nal_hrd=none/filler=0/ip_ratio=1.40/aq=1: 1.00
    Default : Да
    Forced : Нет
    Аудио
    Идентификатор : 2
    Формат : PCM
    Идентификатор кодека : A_PCM/INT/LIT
    Продолжительность : 4 м. 35 с.
    Вид битрейта : Постоянный
    Битрейт : 1536 Кбит/сек
    Каналы : 2 канала
    Частота : 48, 0 КГц
    Частота кадров : 32, 001 кадра/сек (1500 SPF)
    Битовая глубина : 16 бит
    Размер потока : 50, 4 Мбайт (31%)
    Default : Да
    Forced : Нет
    Общее
    Уникальный идентификатор : 187253519461992707304873355807558658925 (0x8CDFB74DE5D16AB685262D3ED2AEEB6D)
    Полное имя : E: баладыBallads from ALEXnROCKмквBallads videoclips Disc 3 mkvBallads from ALEXnROCK mkv Disc 3115 Michael Learns To Rock - Sleeping Child.mkv
    Формат : Matroska
    Версия формата : Version 2
    Размер файла : 126 Мбайт
    Продолжительность : 3 м. 34 с.
    Общий поток : 4938 Кбит/сек
    Дата кодирования : UTC 2017-05-30 16: 05: 41
    Программа кодирования : mkvmerge v7.8.0 (\'River Man\') 32bit built on Apr 3 2015 12: 11: 22
    Библиотека кодирования : libebml v1.3.1 + libmatroska v1.4.2
    Видео
    Идентификатор : 1
    Формат : AVC
    Формат/Информация : Advanced Video Codec
    Профиль формата : High@L4
    Настройки формата : CABAC/4 Ref Frames
    Параметр CABAC формата : Да
    Параметр RefFrames формата : 4 кадра
    Идентификатор кодека : V_MPEG4/ISO/AVC
    Продолжительность : 3 м. 34 с.
    Номинальный битрейт : 3400 Кбит/сек
    Ширина : 1280 пикселей
    Высота : 896 пикселей
    Соотношение сторон : 1, 429
    Режим частоты кадров : Постоянный
    Частота кадров : 25, 000 кадров/сек
    Цветовое пространство : YUV
    Субдискретизация насыщенности : 4: 2: 0
    Битовая глубина : 8 бит
    Тип развёртки : Прогрессивная
    Бит/(Пиксели*Кадры) : 0.119
    Библиотека кодирования : x264 core 146 r2538 121396c
    Настройки программы : cabac=1/ref=3/deblock=1: -1: -1/analyse=0x3: 0x113/me=hex/subme=7/psy=1/psy_rd=1.00: 0.20/mixed_ref=1/me_range=16/chroma_me=1/trellis=1/8x8dct=1/cqm=0/deadzone=21, 11/fast_pskip=1/chroma_qp_offset=-3/threads=12/lookahead_threads=2/sliced_threads=0/nr=0/decimate=0/interlaced=0/bluray_compat=0/constrained_intra=0/bframes=3/b_pyramid=2/b_adapt=1/b_bias=0/direct=3/weightb=1/open_gop=0/weightp=2/keyint=250/keyint_min=25/scenecut=40/intra_refresh=0/rc_lookahead=40/rc=2pass/mbtree=1/bitrate=3400/ratetol=1.0/qcomp=0.60/qpmin=0/qpmax=69/qpstep=4/cplxblur=20.0/qblur=0.5/vbv_maxrate=14000/vbv_bufsize=14000/nal_hrd=none/filler=0/ip_ratio=1.40/aq=1: 1.00
    Default : Да
    Forced : Нет
    Аудио
    Идентификатор : 2
    Формат : PCM
    Идентификатор кодека : A_PCM/INT/LIT
    Продолжительность : 3 м. 34 с.
    Вид битрейта : Постоянный
    Каналы : 2 канала
    Частота : 48, 0 КГц
    Битовая глубина : 16 бит
    Default : Да
    Forced : Нет
    Общее
    Уникальный идентификатор : 225675852925440311282757076099274646147 (0xA9C7969A012CB303A44E468555BC2283)
    Полное имя : E: баладыBallads from ALEXnROCKмквBallads videoclips Disc 3 mkvBallads from ALEXnROCK mkv Disc 3116 Nickelback - Far Away.mkv
    Формат : Matroska
    Версия формата : Version 4/Version 2
    Размер файла : 140 Мбайт
    Продолжительность : 3 м. 57 с.
    Общий поток : 4928 Кбит/сек
    Дата кодирования : UTC 2017-01-15 14: 29: 15
    Программа кодирования : mkvmerge v8.3.0 (\'Over the Horizon\') 64bit
    Библиотека кодирования : libebml v1.3.1 + libmatroska v1.4.2
    Видео
    Идентификатор : 1
    Формат : AVC
    Формат/Информация : Advanced Video Codec
    Профиль формата : High@L4
    Настройки формата : CABAC/4 Ref Frames
    Параметр CABAC формата : Да
    Параметр RefFrames формата : 4 кадра
    Идентификатор кодека : V_MPEG4/ISO/AVC
    Продолжительность : 3 м. 56 с.
    Битрейт : 3401 Кбит/сек
    Ширина : 1280 пикселей
    Высота : 672 пикселя
    Соотношение сторон : 1, 905
    Режим частоты кадров : Постоянный
    Частота кадров : 29, 970 (30000/1001) кадров/сек
    Цветовое пространство : YUV
    Субдискретизация насыщенности : 4: 2: 0
    Битовая глубина : 8 бит
    Тип развёртки : Прогрессивная
    Бит/(Пиксели*Кадры) : 0.132
    Размер потока : 96, 1 Мбайт (69%)
    Библиотека кодирования : x264 core 146 r2538 121396c
    Настройки программы : cabac=1/ref=3/deblock=1: -1: -1/analyse=0x3: 0x113/me=hex/subme=7/psy=1/psy_rd=1.00: 0.20/mixed_ref=1/me_range=16/chroma_me=1/trellis=1/8x8dct=1/cqm=0/deadzone=21, 11/fast_pskip=1/chroma_qp_offset=-3/threads=12/lookahead_threads=2/sliced_threads=0/nr=0/decimate=0/interlaced=0/bluray_compat=0/constrained_intra=0/bframes=3/b_pyramid=2/b_adapt=1/b_bias=0/direct=3/weightb=1/open_gop=0/weightp=2/keyint=250/keyint_min=25/scenecut=40/intra_refresh=0/rc_lookahead=40/rc=2pass/mbtree=1/bitrate=3401/ratetol=1.0/qcomp=0.60/qpmin=0/qpmax=69/qpstep=4/cplxblur=20.0/qblur=0.5/vbv_maxrate=14000/vbv_bufsize=14000/nal_hrd=none/filler=0/ip_ratio=1.40/aq=1: 1.00
    Default : Да
    Forced : Нет
    Аудио
    Идентификатор : 2
    Формат : PCM
    Идентификатор кодека : A_PCM/INT/LIT
    Продолжительность : 3 м. 57 с.
    Вид битрейта : Постоянный
    Битрейт : 1536 Кбит/сек
    Каналы : 2 канала
    Частота : 48, 0 КГц
    Частота кадров : 32, 002 кадра/сек (1500 SPF)
    Битовая глубина : 16 бит
    Размер потока : 43, 5 Мбайт (31%)
    Default : Да
    Forced : Нет
    Общее
    Уникальный идентификатор : 219182233702647698525827353352091059701 (0xA4E4F67497B0FD888A31BF031E71C5F5)
    Полное имя : E: баладыBallads from ALEXnROCKмквBallads videoclips Disc 3 mkvBallads from ALEXnROCK mkv Disc 3117 Григорий Лепс - Рюмка водки на столе.mkv
    Формат : Matroska
    Версия формата : Version 4/Version 2
    Размер файла : 140 Мбайт
    Продолжительность : 3 м. 57 с.
    Общий поток : 4936 Кбит/сек
    Дата кодирования : UTC 2017-06-01 11: 18: 50
    Программа кодирования : mkvmerge v9.8.0 (\'Kuglblids\') 64bit
    Библиотека кодирования : libebml v1.3.4 + libmatroska v1.4.5
    Видео
    Идентификатор : 1
    Формат : AVC
    Формат/Информация : Advanced Video Codec
    Профиль формата : High@L4
    Настройки формата : CABAC/4 Ref Frames
    Параметр CABAC формата : Да
    Параметр RefFrames формата : 4 кадра
    Идентификатор кодека : V_MPEG4/ISO/AVC
    Продолжительность : 3 м. 57 с.
    Битрейт : 3400 Кбит/сек
    Ширина : 1280 пикселей
    Высота : 720 пикселей
    Соотношение сторон : 16: 9
    Режим частоты кадров : Постоянный
    Частота кадров : 25, 000 кадров/сек
    Цветовое пространство : YUV
    Субдискретизация насыщенности : 4: 2: 0
    Битовая глубина : 8 бит
    Тип развёртки : Прогрессивная
    Бит/(Пиксели*Кадры) : 0.148
    Размер потока : 96, 1 Мбайт (69%)
    Библиотека кодирования : x264 core 146 r2538 121396c
    Настройки программы : cabac=1/ref=3/deblock=1: -1: -1/analyse=0x3: 0x113/me=hex/subme=7/psy=1/psy_rd=1.00: 0.20/mixed_ref=1/me_range=16/chroma_me=1/trellis=1/8x8dct=1/cqm=0/deadzone=21, 11/fast_pskip=1/chroma_qp_offset=-3/threads=12/lookahead_threads=2/sliced_threads=0/nr=0/decimate=0/interlaced=0/bluray_compat=0/constrained_intra=0/bframes=3/b_pyramid=2/b_adapt=1/b_bias=0/direct=3/weightb=1/open_gop=0/weightp=2/keyint=250/keyint_min=25/scenecut=40/intra_refresh=0/rc_lookahead=40/rc=2pass/mbtree=1/bitrate=3400/ratetol=1.0/qcomp=0.60/qpmin=0/qpmax=69/qpstep=4/cplxblur=20.0/qblur=0.5/vbv_maxrate=14000/vbv_bufsize=14000/nal_hrd=none/filler=0/ip_ratio=1.40/aq=1: 1.00
    Default : Да
    Forced : Нет
    Аудио
    Идентификатор : 2
    Формат : PCM
    Идентификатор кодека : A_PCM/INT/LIT
    Продолжительность : 3 м. 57 с.
    Вид битрейта : Постоянный
    Битрейт : 1536 Кбит/сек
    Каналы : 2 канала
    Частота : 48, 0 КГц
    Частота кадров : 32, 004 кадра/сек (1500 SPF)
    Битовая глубина : 16 бит
    Размер потока : 43, 4 Мбайт (31%)
    Default : Да
    Forced : Нет
    Общее
    Уникальный идентификатор : 236486452785755683564490527536988153580 (0xB1E9A25379260B599B70FBD222E9E6EC)
    Полное имя : E: баладыBallads from ALEXnROCKмквBallads videoclips Disc 3 mkvBallads from ALEXnROCK mkv Disc 3118 Richard Marx - Hazard.mkv
    Формат : Matroska
    Версия формата : Version 4/Version 2
    Размер файла : 168 Мбайт
    Продолжительность : 4 м. 45 с.
    Общий поток : 4934 Кбит/сек
    Дата кодирования : UTC 2017-06-01 10: 44: 12
    Программа кодирования : mkvmerge v9.8.0 (\'Kuglblids\') 64bit
    Библиотека кодирования : libebml v1.3.4 + libmatroska v1.4.5
    Видео
    Идентификатор : 1
    Формат : AVC
    Формат/Информация : Advanced Video Codec
    Профиль формата : High@L4
    Настройки формата : CABAC/4 Ref Frames
    Параметр CABAC формата : Да
    Параметр RefFrames формата : 4 кадра
    Идентификатор кодека : V_MPEG4/ISO/AVC
    Продолжительность : 4 м. 45 с.
    Битрейт : 3400 Кбит/сек
    Ширина : 1280 пикселей
    Высота : 880 пикселей
    Соотношение сторон : 3: 2
    Режим частоты кадров : Постоянный
    Частота кадров : 29, 970 (30000/1001) кадров/сек
    Цветовое пространство : YUV
    Субдискретизация насыщенности : 4: 2: 0
    Битовая глубина : 8 бит
    Тип развёртки : Прогрессивная
    Бит/(Пиксели*Кадры) : 0.101
    Размер потока : 116 Мбайт (69%)
    Библиотека кодирования : x264 core 146 r2538 121396c
    Настройки программы : cabac=1/ref=3/deblock=1: -1: -1/analyse=0x3: 0x113/me=hex/subme=7/psy=1/psy_rd=1.00: 0.20/mixed_ref=1/me_range=16/chroma_me=1/trellis=1/8x8dct=1/cqm=0/deadzone=21, 11/fast_pskip=1/chroma_qp_offset=-3/threads=12/lookahead_threads=2/sliced_threads=0/nr=0/decimate=0/interlaced=0/bluray_compat=0/constrained_intra=0/bframes=3/b_pyramid=2/b_adapt=1/b_bias=0/direct=3/weightb=1/open_gop=0/weightp=2/keyint=250/keyint_min=25/scenecut=40/intra_refresh=0/rc_lookahead=40/rc=2pass/mbtree=1/bitrate=3400/ratetol=1.0/qcomp=0.60/qpmin=0/qpmax=69/qpstep=4/cplxblur=20.0/qblur=0.5/vbv_maxrate=14000/vbv_bufsize=14000/nal_hrd=none/filler=0/ip_ratio=1.40/aq=1: 1.00
    Default : Да
    Forced : Нет
    Аудио
    Идентификатор : 2
    Формат : PCM
    Идентификатор кодека : A_PCM/INT/LIT
    Продолжительность : 4 м. 45 с.
    Вид битрейта : Постоянный
    Битрейт : 1536 Кбит/сек
    Каналы : 2 канала
    Частота : 48, 0 КГц
    Частота кадров : 32, 003 кадра/сек (1500 SPF)
    Битовая глубина : 16 бит
    Размер потока : 52, 2 Мбайт (31%)
    Default : Да
    Forced : Нет
    Общее
    Уникальный идентификатор : 207670602017387046204596312045337387405 (0x9C3BE731860E3DDF9B370199050F218D)
    Полное имя : E: баладыBallads from ALEXnROCKмквBallads videoclips Disc 3 mkvBallads from ALEXnROCK mkv Disc 3119 Jon Lennon - Imagine.mkv
    Формат : Matroska
    Версия формата : Version 2
    Размер файла : 115 Мбайт
    Продолжительность : 3 м. 15 с.
    Общий поток : 4937 Кбит/сек
    Дата кодирования : UTC 2017-05-30 17: 50: 57
    Программа кодирования : mkvmerge v7.8.0 (\'River Man\') 32bit built on Apr 3 2015 12: 11: 22
    Библиотека кодирования : libebml v1.3.1 + libmatroska v1.4.2
    Видео
    Идентификатор : 1
    Формат : AVC
    Формат/Информация : Advanced Video Codec
    Профиль формата : High@L4
    Настройки формата : CABAC/4 Ref Frames
    Параметр CABAC формата : Да
    Параметр RefFrames формата : 4 кадра
    Идентификатор кодека : V_MPEG4/ISO/AVC
    Продолжительность : 3 м. 15 с.
    Номинальный битрейт : 3400 Кбит/сек
    Ширина : 1280 пикселей
    Высота : 896 пикселей
    Соотношение сторон : 1, 429
    Режим частоты кадров : Постоянный
    Частота кадров : 25, 000 кадров/сек
    Цветовое пространство : YUV
    Субдискретизация насыщенности : 4: 2: 0
    Битовая глубина : 8 бит
    Тип развёртки : Прогрессивная
    Бит/(Пиксели*Кадры) : 0.119
    Библиотека кодирования : x264 core 146 r2538 121396c
    Настройки программы : cabac=1/ref=3/deblock=1: -1: -1/analyse=0x3: 0x113/me=hex/subme=7/psy=1/psy_rd=1.00: 0.20/mixed_ref=1/me_range=16/chroma_me=1/trellis=1/8x8dct=1/cqm=0/deadzone=21, 11/fast_pskip=1/chroma_qp_offset=-3/threads=12/lookahead_threads=2/sliced_threads=0/nr=0/decimate=0/interlaced=0/bluray_compat=0/constrained_intra=0/bframes=3/b_pyramid=2/b_adapt=1/b_bias=0/direct=3/weightb=1/open_gop=0/weightp=2/keyint=250/keyint_min=25/scenecut=40/intra_refresh=0/rc_lookahead=40/rc=2pass/mbtree=1/bitrate=3400/ratetol=1.0/qcomp=0.60/qpmin=0/qpmax=69/qpstep=4/cplxblur=20.0/qblur=0.5/vbv_maxrate=14000/vbv_bufsize=14000/nal_hrd=none/filler=0/ip_ratio=1.40/aq=1: 1.00
    Default : Да
    Forced : Нет
    Аудио
    Идентификатор : 2
    Формат : PCM
    Идентификатор кодека : A_PCM/INT/LIT
    Продолжительность : 3 м. 15 с.
    Вид битрейта : Постоянный
    Каналы : 2 канала
    Частота : 48, 0 КГц
    Битовая глубина : 16 бит
    Default : Да
    Forced : Нет
    Общее
    Уникальный идентификатор : 183878927845928377998233335078662155546 (0x8A55CB178BB5036A97C2BC331EC3AD1A)
    Полное имя : E: баладыBallads from ALEXnROCKмквBallads videoclips Disc 3 mkvBallads from ALEXnROCK mkv Disc 3120 Челси - Почему.mkv
    Формат : Matroska
    Версия формата : Version 4/Version 2
    Размер файла : 130 Мбайт
    Продолжительность : 3 м. 39 с.
    Общий поток : 4947 Кбит/сек
    Дата кодирования : UTC 2017-06-01 13: 26: 40
    Программа кодирования : mkvmerge v9.8.0 (\'Kuglblids\') 64bit
    Библиотека кодирования : libebml v1.3.4 + libmatroska v1.4.5
    Видео
    Идентификатор : 1
    Формат : AVC
    Формат/Информация : Advanced Video Codec
    Профиль формата : High@L4
    Настройки формата : CABAC/4 Ref Frames
    Параметр CABAC формата : Да
    Параметр RefFrames формата : 4 кадра
    Идентификатор кодека : V_MPEG4/ISO/AVC
    Продолжительность : 3 м. 39 с.
    Битрейт : 3400 Кбит/сек
    Ширина : 1280 пикселей
    Высота : 712 пикселей
    Соотношение сторон : 16: 9
    Режим частоты кадров : Постоянный
    Частота кадров : 25, 000 кадров/сек
    Цветовое пространство : YUV
    Субдискретизация насыщенности : 4: 2: 0
    Битовая глубина : 8 бит
    Тип развёртки : Прогрессивная
    Бит/(Пиксели*Кадры) : 0.149
    Размер потока : 89, 2 Мбайт (69%)
    Библиотека кодирования : x264 core 146 r2538 121396c
    Настройки программы : cabac=1/ref=3/deblock=1: -1: -1/analyse=0x3: 0x113/me=hex/subme=7/psy=1/psy_rd=1.00: 0.20/mixed_ref=1/me_range=16/chroma_me=1/trellis=1/8x8dct=1/cqm=0/deadzone=21, 11/fast_pskip=1/chroma_qp_offset=-3/threads=12/lookahead_threads=2/sliced_threads=0/nr=0/decimate=0/interlaced=0/bluray_compat=0/constrained_intra=0/bframes=3/b_pyramid=2/b_adapt=1/b_bias=0/direct=3/weightb=1/open_gop=0/weightp=2/keyint=250/keyint_min=25/scenecut=40/intra_refresh=0/rc_lookahead=40/rc=2pass/mbtree=1/bitrate=3400/ratetol=1.0/qcomp=0.60/qpmin=0/qpmax=69/qpstep=4/cplxblur=20.0/qblur=0.5/vbv_maxrate=14000/vbv_bufsize=14000/nal_hrd=none/filler=0/ip_ratio=1.40/aq=1: 1.00
    Default : Да
    Forced : Нет
    Аудио
    Идентификатор : 2
    Формат : PCM
    Идентификатор кодека : A_PCM/INT/LIT
    Продолжительность : 3 м. 39 с.
    Вид битрейта : Постоянный
    Битрейт : 1536 Кбит/сек
    Каналы : 2 канала
    Частота : 48, 0 КГц
    Частота кадров : 32, 004 кадра/сек (1500 SPF)
    Битовая глубина : 16 бит
    Размер потока : 40, 2 Мбайт (31%)
    Default : Да
    Forced : Нет
    Общее
    Уникальный идентификатор : 231584017845098940629664159014542187560 (0xAE39759F3B683BDCBB5C49E23E5D1C28)
    Полное имя : E: баладыBallads from ALEXnROCKмквBallads videoclips Disc 3 mkvBallads from ALEXnROCK mkv Disc 3121 Enigma - Sadeness.mkv
    Формат : Matroska
    Версия формата : Version 4/Version 2
    Размер файла : 147 Мбайт
    Продолжительность : 4 м. 10 с.
    Общий поток : 4931 Кбит/сек
    Дата кодирования : UTC 2017-05-31 17: 44: 32
    Программа кодирования : mkvmerge v9.8.0 (\'Kuglblids\') 64bit
    Библиотека кодирования : libebml v1.3.4 + libmatroska v1.4.5
    Видео
    Идентификатор : 1
    Формат : AVC
    Формат/Информация : Advanced Video Codec
    Профиль формата : High@L4
    Настройки формата : CABAC/4 Ref Frames
    Параметр CABAC формата : Да
    Параметр RefFrames формата : 4 кадра
    Идентификатор кодека : V_MPEG4/ISO/AVC
    Продолжительность : 4 м. 10 с.
    Битрейт : 3400 Кбит/сек
    Ширина : 1280 пикселей
    Высота : 904 пикселя
    Соотношение сторон : 1, 416
    Режим частоты кадров : Постоянный
    Частота кадров : 25, 000 кадров/сек
    Цветовое пространство : YUV
    Субдискретизация насыщенности : 4: 2: 0
    Битовая глубина : 8 бит
    Тип развёртки : Прогрессивная
    Бит/(Пиксели*Кадры) : 0.118
    Размер потока : 101 Мбайт (69%)
    Библиотека кодирования : x264 core 146 r2538 121396c
    Настройки программы : cabac=1/ref=3/deblock=1: -1: -1/analyse=0x3: 0x113/me=hex/subme=7/psy=1/psy_rd=1.00: 0.20/mixed_ref=1/me_range=16/chroma_me=1/trellis=1/8x8dct=1/cqm=0/deadzone=21, 11/fast_pskip=1/chroma_qp_offset=-3/threads=12/lookahead_threads=2/sliced_threads=0/nr=0/decimate=0/interlaced=0/bluray_compat=0/constrained_intra=0/bframes=3/b_pyramid=2/b_adapt=1/b_bias=0/direct=3/weightb=1/open_gop=0/weightp=2/keyint=250/keyint_min=25/scenecut=40/intra_refresh=0/rc_lookahead=40/rc=2pass/mbtree=1/bitrate=3400/ratetol=1.0/qcomp=0.60/qpmin=0/qpmax=69/qpstep=4/cplxblur=20.0/qblur=0.5/vbv_maxrate=14000/vbv_bufsize=14000/nal_hrd=none/filler=0/ip_ratio=1.40/aq=1: 1.00
    Default : Да
    Forced : Нет
    Аудио
    Идентификатор : 2
    Формат : PCM
    Идентификатор кодека : A_PCM/INT/LIT
    Продолжительность : 4 м. 10 с.
    Вид битрейта : Постоянный
    Битрейт : 1536 Кбит/сек
    Каналы : 2 канала
    Частота : 48, 0 КГц
    Частота кадров : 32, 004 кадра/сек (1500 SPF)
    Битовая глубина : 16 бит
    Размер потока : 45, 8 Мбайт (31%)
    Default : Да
    Forced : Нет
    Общее
    Уникальный идентификатор : 252592625277858558081273532758598924474 (0xBE0791F076246CA3863FE6D6581CB8BA)
    Полное имя : E: баладыBallads from ALEXnROCKмквBallads videoclips Disc 3 mkvBallads from ALEXnROCK mkv Disc 3122 Michael Learns To Rock - Someday.mkv
    Формат : Matroska
    Версия формата : Version 2
    Размер файла : 132 Мбайт
    Продолжительность : 3 м. 43 с.
    Общий поток : 4937 Кбит/сек
    Дата кодирования : UTC 2017-05-31 18: 23: 16
    Программа кодирования : mkvmerge v7.8.0 (\'River Man\') 32bit built on Apr 3 2015 12: 11: 22
    Библиотека кодирования : libebml v1.3.1 + libmatroska v1.4.2
    Видео
    Идентификатор : 1
    Формат : AVC
    Формат/Информация : Advanced Video Codec
    Профиль формата : High@L4
    Настройки формата : CABAC/4 Ref Frames
    Параметр CABAC формата : Да
    Параметр RefFrames формата : 4 кадра
    Идентификатор кодека : V_MPEG4/ISO/AVC
    Продолжительность : 3 м. 43 с.
    Номинальный битрейт : 3400 Кбит/сек
    Ширина : 1280 пикселей
    Высота : 672 пикселя
    Соотношение сторон : 1, 905
    Режим частоты кадров : Постоянный
    Частота кадров : 25, 000 кадров/сек
    Цветовое пространство : YUV
    Субдискретизация насыщенности : 4: 2: 0
    Битовая глубина : 8 бит
    Тип развёртки : Прогрессивная
    Бит/(Пиксели*Кадры) : 0.158
    Библиотека кодирования : x264 core 146 r2538 121396c
    Настройки программы : cabac=1/ref=3/deblock=1: -1: -1/analyse=0x3: 0x113/me=hex/subme=7/psy=1/psy_rd=1.00: 0.20/mixed_ref=1/me_range=16/chroma_me=1/trellis=1/8x8dct=1/cqm=0/deadzone=21, 11/fast_pskip=1/chroma_qp_offset=-3/threads=12/lookahead_threads=2/sliced_threads=0/nr=0/decimate=0/interlaced=0/bluray_compat=0/constrained_intra=0/bframes=3/b_pyramid=2/b_adapt=1/b_bias=0/direct=3/weightb=1/open_gop=0/weightp=2/keyint=250/keyint_min=25/scenecut=40/intra_refresh=0/rc_lookahead=40/rc=2pass/mbtree=1/bitrate=3400/ratetol=1.0/qcomp=0.60/qpmin=0/qpmax=69/qpstep=4/cplxblur=20.0/qblur=0.5/vbv_maxrate=14000/vbv_bufsize=14000/nal_hrd=none/filler=0/ip_ratio=1.40/aq=1: 1.00
    Default : Да
    Forced : Нет
    Аудио
    Идентификатор : 2
    Формат : PCM
    Идентификатор кодека : A_PCM/INT/LIT
    Продолжительность : 3 м. 43 с.
    Вид битрейта : Постоянный
    Каналы : 2 канала
    Частота : 48, 0 КГц
    Битовая глубина : 16 бит
    Default : Да
    Forced : Нет
    Общее
    Уникальный идентификатор : 239930228276781597919272274581243567817 (0xB480E19117C7F6BDB9A4FF2B60801EC9)
    Полное имя : E: баладыBallads from ALEXnROCKмквBallads videoclips Disc 3 mkvBallads from ALEXnROCK mkv Disc 3123 Stevie Wonder - I Just Called To Say I Love You.mkv
    Формат : Matroska
    Версия формата : Version 4/Version 2
    Размер файла : 154 Мбайт
    Продолжительность : 4 м. 20 с.
    Общий поток : 4935 Кбит/сек
    Дата кодирования : UTC 2017-06-03 21: 17: 42
    Программа кодирования : mkvmerge v9.8.0 (\'Kuglblids\') 64bit
    Библиотека кодирования : libebml v1.3.4 + libmatroska v1.4.5
    Видео
    Идентификатор : 1
    Формат : AVC
    Формат/Информация : Advanced Video Codec
    Профиль формата : High@L4
    Настройки формата : CABAC/4 Ref Frames
    Параметр CABAC формата : Да
    Параметр RefFrames формата : 4 кадра
    Идентификатор кодека : V_MPEG4/ISO/AVC
    Продолжительность : 4 м. 20 с.
    Битрейт : 3400 Кбит/сек
    Ширина : 1280 пикселей
    Высота : 888 пикселей
    Соотношение сторон : 1, 441
    Режим частоты кадров : Постоянный
    Частота кадров : 29, 970 (30000/1001) кадров/сек
    Цветовое пространство : YUV
    Субдискретизация насыщенности : 4: 2: 0
    Битовая глубина : 8 бит
    Тип развёртки : Прогрессивная
    Бит/(Пиксели*Кадры) : 0.100
    Размер потока : 106 Мбайт (69%)
    Библиотека кодирования : x264 core 146 r2538 121396c
    Настройки программы : cabac=1/ref=3/deblock=1: -1: -1/analyse=0x3: 0x113/me=hex/subme=7/psy=1/psy_rd=1.00: 0.20/mixed_ref=1/me_range=16/chroma_me=1/trellis=1/8x8dct=1/cqm=0/deadzone=21, 11/fast_pskip=1/chroma_qp_offset=-3/threads=12/lookahead_threads=2/sliced_threads=0/nr=0/decimate=0/interlaced=0/bluray_compat=0/constrained_intra=0/bframes=3/b_pyramid=2/b_adapt=1/b_bias=0/direct=3/weightb=1/open_gop=0/weightp=2/keyint=250/keyint_min=25/scenecut=40/intra_refresh=0/rc_lookahead=40/rc=2pass/mbtree=1/bitrate=3400/ratetol=1.0/qcomp=0.60/qpmin=0/qpmax=69/qpstep=4/cplxblur=20.0/qblur=0.5/vbv_maxrate=14000/vbv_bufsize=14000/nal_hrd=none/filler=0/ip_ratio=1.40/aq=1: 1.00
    Default : Да
    Forced : Нет
    Аудио
    Идентификатор : 2
    Формат : PCM
    Идентификатор кодека : A_PCM/INT/LIT
    Продолжительность : 4 м. 20 с.
    Вид битрейта : Постоянный
    Битрейт : 1536 Кбит/сек
    Каналы : 2 канала
    Частота : 48, 0 КГц
    Частота кадров : 32, 003 кадра/сек (1500 SPF)
    Битовая глубина : 16 бит
    Размер потока : 47, 7 Мбайт (31%)
    Default : Да
    Forced : Нет
    Общее
    Уникальный идентификатор : 186694673711319141334947297578965044705 (0x8C741614DC949997A5B1E75344648DE1)
    Полное имя : E: баладыBallads from ALEXnROCKмквBallads videoclips Disc 3 mkvBallads from ALEXnROCK mkv Disc 3124 Лицей - Осень.mkv
    Формат : Matroska
    Версия формата : Version 2
    Размер файла : 157 Мбайт
    Продолжительность : 4 м. 27 с.
    Общий поток : 4936 Кбит/сек
    Дата кодирования : UTC 2017-03-27 15: 25: 32
    Программа кодирования : mkvmerge v7.8.0 (\'River Man\') 32bit built on Apr 3 2015 12: 11: 22
    Библиотека кодирования : libebml v1.3.1 + libmatroska v1.4.2
    Видео
    Идентификатор : 1
    Формат : AVC
    Формат/Информация : Advanced Video Codec
    Профиль формата : High@L4
    Настройки формата : CABAC/4 Ref Frames
    Параметр CABAC формата : Да
    Параметр RefFrames формата : 4 кадра
    Идентификатор кодека : V_MPEG4/ISO/AVC
    Продолжительность : 4 м. 27 с.
    Номинальный битрейт : 3401 Кбит/сек
    Ширина : 1280 пикселей
    Высота : 904 пикселя
    Соотношение сторон : 1, 416
    Режим частоты кадров : Постоянный
    Частота кадров : 25, 000 кадров/сек
    Цветовое пространство : YUV
    Субдискретизация насыщенности : 4: 2: 0
    Битовая глубина : 8 бит
    Тип развёртки : Прогрессивная
    Бит/(Пиксели*Кадры) : 0.118
    Библиотека кодирования : x264 core 146 r2538 121396c
    Настройки программы : cabac=1/ref=3/deblock=1: -1: -1/analyse=0x3: 0x113/me=hex/subme=7/psy=1/psy_rd=1.00: 0.20/mixed_ref=1/me_range=16/chroma_me=1/trellis=1/8x8dct=1/cqm=0/deadzone=21, 11/fast_pskip=1/chroma_qp_offset=-3/threads=12/lookahead_threads=2/sliced_threads=0/nr=0/decimate=0/interlaced=0/bluray_compat=0/constrained_intra=0/bframes=3/b_pyramid=2/b_adapt=1/b_bias=0/direct=3/weightb=1/open_gop=0/weightp=2/keyint=250/keyint_min=25/scenecut=40/intra_refresh=0/rc_lookahead=40/rc=2pass/mbtree=1/bitrate=3401/ratetol=1.0/qcomp=0.60/qpmin=0/qpmax=69/qpstep=4/cplxblur=20.0/qblur=0.5/vbv_maxrate=14000/vbv_bufsize=14000/nal_hrd=none/filler=0/ip_ratio=1.40/aq=1: 1.00
    Default : Да
    Forced : Нет
    Аудио
    Идентификатор : 2
    Формат : PCM
    Идентификатор кодека : A_PCM/INT/LIT
    Продолжительность : 4 м. 27 с.
    Вид битрейта : Постоянный
    Каналы : 2 канала
    Частота : 48, 0 КГц
    Битовая глубина : 16 бит
    Default : Да
    Forced : Нет
    Общее
    Уникальный идентификатор : 205848633824550407871262032386730709433 (0x9ADD0139E0A37F93AF69139F9E5751B9)
    Полное имя : E: баладыBallads from ALEXnROCKмквBallads videoclips Disc 3 mkvBallads from ALEXnROCK mkv Disc 3125 Foreigner - I Want To Know What Love .mkv
    Формат : Matroska
    Версия формата : Version 4/Version 2
    Размер файла : 174 Мбайт
    Продолжительность : 4 м. 55 с.
    Общий поток : 4943 Кбит/сек
    Дата кодирования : UTC 2017-06-01 10: 05: 17
    Программа кодирования : mkvmerge v9.8.0 (\'Kuglblids\') 64bit
    Библиотека кодирования : libebml v1.3.4 + libmatroska v1.4.5
    Видео
    Идентификатор : 1
    Формат : AVC
    Формат/Информация : Advanced Video Codec
    Профиль формата : High@L4
    Настройки формата : CABAC/4 Ref Frames
    Параметр CABAC формата : Да
    Параметр RefFrames формата : 4 кадра
    Идентификатор кодека : V_MPEG4/ISO/AVC
    Продолжительность : 4 м. 55 с.
    Битрейт : 3400 Кбит/сек
    Ширина : 1280 пикселей
    Высота : 920 пикселей
    Соотношение сторон : 1, 391
    Режим частоты кадров : Постоянный
    Частота кадров : 29, 970 (30000/1001) кадров/сек
    Цветовое пространство : YUV
    Субдискретизация насыщенности : 4: 2: 0
    Битовая глубина : 8 бит
    Тип развёртки : Прогрессивная
    Бит/(Пиксели*Кадры) : 0.096
    Размер потока : 120 Мбайт (69%)
    Библиотека кодирования : x264 core 146 r2538 121396c
    Настройки программы : cabac=1/ref=3/deblock=1: -1: -1/analyse=0x3: 0x113/me=hex/subme=7/psy=1/psy_rd=1.00: 0.20/mixed_ref=1/me_range=16/chroma_me=1/trellis=1/8x8dct=1/cqm=0/deadzone=21, 11/fast_pskip=1/chroma_qp_offset=-3/threads=12/lookahead_threads=2/sliced_threads=0/nr=0/decimate=0/interlaced=0/bluray_compat=0/constrained_intra=0/bframes=3/b_pyramid=2/b_adapt=1/b_bias=0/direct=3/weightb=1/open_gop=0/weightp=2/keyint=250/keyint_min=25/scenecut=40/intra_refresh=0/rc_lookahead=40/rc=2pass/mbtree=1/bitrate=3400/ratetol=1.0/qcomp=0.60/qpmin=0/qpmax=69/qpstep=4/cplxblur=20.0/qblur=0.5/vbv_maxrate=14000/vbv_bufsize=14000/nal_hrd=none/filler=0/ip_ratio=1.40/aq=1: 1.00
    Default : Да
    Forced : Нет
    Аудио
    Идентификатор : 2
    Формат : PCM
    Идентификатор кодека : A_PCM/INT/LIT
    Продолжительность : 4 м. 55 с.
    Вид битрейта : Постоянный
    Битрейт : 1536 Кбит/сек
    Каналы : 2 канала
    Частота : 48, 0 КГц
    Частота кадров : 32, 000 кадра/сек (1500 SPF)
    Битовая глубина : 16 бит
    Размер потока : 54, 1 Мбайт (31%)
    Default : Да
    Forced : Нет
    Общее
    Уникальный идентификатор : 198128894089655193910570343369544537387 (0x950E3CABDF3EED83B8DC05A6C8CB952B)
    Полное имя : E: баладыBallads from ALEXnROCKмквBallads videoclips Disc 3 mkvBallads from ALEXnROCK mkv Disc 3126 Blue - One Love.mkv
    Формат : Matroska
    Версия формата : Version 4/Version 2
    Размер файла : 123 Мбайт
    Продолжительность : 3 м. 30 с.
    Общий поток : 4905 Кбит/сек
    Дата кодирования : UTC 2017-06-04 16: 55: 17
    Программа кодирования : mkvmerge v9.8.0 (\'Kuglblids\') 64bit
    Библиотека кодирования : libebml v1.3.4 + libmatroska v1.4.5
    Видео
    Идентификатор : 1
    Формат : AVC
    Формат/Информация : Advanced Video Codec
    Профиль формата : High@L4
    Настройки формата : CABAC/4 Ref Frames
    Параметр CABAC формата : Да
    Параметр RefFrames формата : 4 кадра
    Идентификатор кодека : V_MPEG4/ISO/AVC
    Продолжительность : 3 м. 30 с.
    Битрейт : 3400 Кбит/сек
    Ширина : 1280 пикселей
    Высота : 672 пикселя
    Соотношение сторон : 1, 905
    Режим частоты кадров : Постоянный
    Частота кадров : 25, 000 кадров/сек
    Цветовое пространство : YUV
    Субдискретизация насыщенности : 4: 2: 0
    Битовая глубина : 8 бит
    Тип развёртки : Прогрессивная
    Бит/(Пиксели*Кадры) : 0.158
    Размер потока : 85, 5 Мбайт (69%)
    Библиотека кодирования : x264 core 146 r2538 121396c
    Настройки программы : cabac=1/ref=3/deblock=1: -1: -1/analyse=0x3: 0x113/me=hex/subme=7/psy=1/psy_rd=1.00: 0.20/mixed_ref=1/me_range=16/chroma_me=1/trellis=1/8x8dct=1/cqm=0/deadzone=21, 11/fast_pskip=1/chroma_qp_offset=-3/threads=12/lookahead_threads=2/sliced_threads=0/nr=0/decimate=0/interlaced=0/bluray_compat=0/constrained_intra=0/bframes=3/b_pyramid=2/b_adapt=1/b_bias=0/direct=3/weightb=1/open_gop=0/weightp=2/key
    Рейтинг →
     (голосов: 1, оценка 4/5, голосовать можно 1 раз )

    Другие торренты по теме:

  • Чи-Ли - Сборник клипов (2005-2015) DVDRip WebRip
  • Сборник клипов - Philizz "Video YearMix" (2015) HDTV [1080p]
  • Сборник клипов - Philizz "Tropical Summer" (2016) HDTV [1080p]
  • Сборник клипов - Philizz "I covered the 80s" (season 1, episode 1-5) (2016) WEB-DLRip [H.264 / 720-LQ]
  • Сборник клипов - Philizz "Video Yearmix" (2016) HDTV [AVC / 1080p]
  • Сборник клипов - Philizz "Back To The 90s" (episode 1) (2017) WEB-DLRip [720p]
  • Сборник клипов - Philizz "Back To The 90s" (episode 2) (2017) WEB-DLRip [H.264 / 720p-LQ]
  • Сборник клипов - Philizz "Back To The 90s" (episode 3) (2017) WEB-DLRip [H.264 / 720p-LQ]


    • Комментарии (0):

      Информация

      Информация

        Посетители, находящиеся в группе Гости, не могут оставлять комментарии в данной новости.

        ↓ Меню




        ↓ Опрос

        Вы добавили сайт в закладки?
        Да
        Нет


        Top 10 за месяц (Другое)