.
Авторизация | Регистрация
Хочешь лучшие торренты? Добавь свой email!
Добавить

Торрент скачать бесплатно

  • support: webmaster@btracker.org
» » Дочь Бреста / La fille de Brest (2016) HDRip [MVO] [AD] торрент скачать бесплатно


    Дочь Бреста / La fille de Brest (2016) HDRip [MVO] [AD] торрент скачать бесплатно

    Опубликовал: Админ | Дата: 23-12-2017, 05:00 | .torrent скачали: 0

    Дочь Бреста / La fille de Brest (2016) HDRip [MVO] [AD]Производство: Франция/Breizh Film Fund, Canal+ fr, Ciné
    Жанр: Драма
    Режиссер: Эмманюэль Берко

    Актеры
    Сидсе Бабетт Кнудсен, Бенуа Мажимель, Изабель де Гертог, Лара Ньюманн, Патрик Лигарде, Оливье Паские, Филипп Юшан, Гюстав Керверн, Пабло Поли

    Описание

    История врача-пульмонолога из Бреста Ирен Франшон, которая обнаружила прямую связь между подозрительной гибелью пациентов и лекарством, которое рекламировали и выписывали пациентам на протяжении трёх десятилетий.

    Релиз от: KOSHARA
    Продолжительность: 02: 08: 24
    Качество видео: HDRip
    Перевод: Многоголосый закадровый, любительский
    Субтитры: отсутствуют
    Реклама: присутствуют аудио и видео вставки рекламы
    Видео: Xvid, 720x304, ~1322 Kbps
    Аудио: AC3, 2 ch, 128 Kbps

    General
    Complete name : /media/win/TORRENT/UPLOAD TORRENTS/La.Fille.De.Brest.2016.P.HDRip.14OOMB.avi
    Format : AVI
    Format/Info : Audio Video Interleave
    File size : 1.31 GiB
    Duration : 2 h 8 min
    Overall bit rate : 1 460 kb/s
    Writing application : VirtualDubMod 1.5.10.2 (build 2540/release)
    Writing library : VirtualDubMod build 2540/release
    Video
    ID : 0
    Format : MPEG-4 Visual
    Format profile : Advanced Simple@L5
    Format settings : BVOP2
    Format settings, BVOP : 2
    Format settings, QPel : No
    Format settings, GMC : No warppoints
    Format settings, Matrix : Default (MPEG)
    Codec ID : XVID
    Codec ID/Hint : XviD
    Duration : 2 h 8 min
    Bit rate : 1 323 kb/s
    Width : 720 pixels
    Height : 304 pixels
    Display aspect ratio : 2.35: 1
    Frame rate : 23.976 (24000/1001) FPS
    Color space : YUV
    Chroma subsampling : 4: 2: 0
    Bit depth : 8 bits
    Scan type : Progressive
    Compression mode : Lossy
    Bits/(Pixel*Frame) : 0.252
    Stream size : 1.19 GiB (91%)
    Writing library : XviD 1.2.1 (UTC 2008-12-04)
    Audio
    ID : 1
    Format : AC-3
    Format/Info : Audio Coding 3
    Codec ID : 2000
    Duration : 2 h 8 min
    Bit rate mode : Constant
    Bit rate : 128 kb/s
    Channel(s) : 2 channels
    Channel positions : Front: L R
    Sampling rate : 48.0 kHz
    Frame rate : 31.250 FPS (1536 SPF)
    Bit depth : 16 bits
    Compression mode : Lossy
    Stream size : 118 MiB (9%)
    Alignment : Split accross interleaves
    Interleave, duration : 42 ms (1.00 video frame)
    Interleave, preload duration : 500 ms
    Service kind : Complete Main


    Дочь Бреста/La fille de Brest (2016) HDRip [MVO] [AD]
    Рейтинг →
     (голосов: 1, оценка 5/5, голосовать можно 1 раз )

    Другие торренты по теме:

  • Sanzoku no Musume Ronja | Дочь разбойника, Ронья [2014, TV, 2 из 26] HDTV 720p Hi10P raw
  • Оливер Пётч | Дочь палача и король нищих (2014) [FB2]
  • Оливер Пётч | Цикл «Дочь палача» [4 книги] (2014-2015) [FB2] скачать через торрент бесплатно
  • Дочь Монро и Кеннеди - Вне игры (2015) [MP3|320 кб / с]<Rock> скачать через торрент бесплатно
  • Смерть по правилам / Донато и дочь / Donato and Daughter (1993) DVDRip [H.264] [AVO] скачать через торрент бесплатно
  • Старшая дочь (2015) WEB-DLRip (серии 1-3 из 12) (обновляемая) скачать через торрент бесплатно
  • Старшая дочь (2015) WEB-DLRip [H.264 / 720p-LQ] (серии 1-8 из 12) (обновляемая) скачать через торрент бесплатно
  • Старшая дочь (2015) WEB-DLRip [H.264 / 1080p-LQ] (серии 1-8 из 12) (обновляемая) скачать через торрент бесплатно


    • Комментарии (0):

      Информация

      Информация

        Посетители, находящиеся в группе Гости, не могут оставлять комментарии в данной новости.

        ↓ Меню




        ↓ Опрос

        Вы добавили сайт в закладки?
        Да
        Нет


        Top 10 за месяц (Другое)