.
Авторизация | Регистрация
Хочешь лучшие торренты? Добавь свой email!
Добавить

Торрент скачать бесплатно

» » Зачарованный дом / The Enchanted Cottage (2016) WEB-DLRip [MVO] [AD] торрент скачать бесплатно


    Зачарованный дом / The Enchanted Cottage (2016) WEB-DLRip [MVO] [AD] торрент скачать бесплатно

    Опубликовал: Админ | Дата: 23-12-2017, 05:00 | .torrent скачали: 0

    Зачарованный дом / The Enchanted Cottage (2016) WEB-DLRip [MVO] [AD]Производство: США/Art Institute of the Inland Empire, Theatrical Arts International
    Жанр: Драма, Мелодрама
    Режиссер: Andrew Fisher, Джозеф Хенсон, Joshua Arcadi

    Актеры
    Rene Abelarб, John McCool Bowers, Тарика Брандт, Tarika Presence Brandt, Ричард Хэтч, Пол Д. Мастерсон, Сара Навратил, Сэм Нисбетт, Steven Reyes, Сандра Райс

    Описание

    Только ли волшебство помогло изуродованному морпеху и деревенской медсестре найти друг в друге нечто необычное, что связало их навсегда?

    Релиз от: KOSHARA
    Продолжительность: 01: 27: 49
    Качество видео: WEB-DLRip
    Перевод: Многоголосый закадровый (Синема УС)
    Субтитры: отсутствуют
    Реклама: присутствуют аудио и видио вставки рекламы
    Видео: Xvid, 720x400, ~1834 Kbps
    Аудио: AC3, 2 ch, 384 Kbps

    General
    Complete name : /media/win/TORRENT/UPLOAD TORRENTS/The.Enchanted.Cottage.2016.P.WEB-DLRip.14OOMB.avi
    Format : AVI
    Format/Info : Audio Video Interleave
    File size : 1.37 GiB
    Duration : 1 h 27 min
    Overall bit rate : 2 228 kb/s
    Writing application : VirtualDubMod 1.5.10.2 (build 2540/release)
    Writing library : VirtualDubMod build 2540/release
    Video
    ID : 0
    Format : MPEG-4 Visual
    Format profile : Advanced Simple@L5
    Format settings : BVOP2
    Format settings, BVOP : 2
    Format settings, QPel : No
    Format settings, GMC : No warppoints
    Format settings, Matrix : Default (MPEG)
    Codec ID : XVID
    Codec ID/Hint : XviD
    Duration : 1 h 27 min
    Bit rate : 1 835 kb/s
    Width : 720 pixels
    Height : 400 pixels
    Display aspect ratio : 16: 9
    Frame rate : 23.976 (24000/1001) FPS
    Color space : YUV
    Chroma subsampling : 4: 2: 0
    Bit depth : 8 bits
    Scan type : Progressive
    Compression mode : Lossy
    Bits/(Pixel*Frame) : 0.266
    Stream size : 1.13 GiB (82%)
    Writing library : XviD 1.2.1 (UTC 2008-12-04)
    Audio
    ID : 1
    Format : AC-3
    Format/Info : Audio Coding 3
    Codec ID : 2000
    Duration : 1 h 27 min
    Bit rate mode : Constant
    Bit rate : 384 kb/s
    Channel(s) : 2 channels
    Channel positions : Front: L R
    Sampling rate : 48.0 kHz
    Frame rate : 31.250 FPS (1536 SPF)
    Bit depth : 16 bits
    Compression mode : Lossy
    Stream size : 241 MiB (17%)
    Alignment : Split accross interleaves
    Interleave, duration : 42 ms (1.00 video frame)
    Interleave, preload duration : 500 ms
    Service kind : Complete Main

    Скриншоты для ознакомления



    Все одноименные релизы в Клубе
    Время раздачи: c 09: 00 до 22: 00 до пяти скачавших (до появления первых 3-5 скачавших)


    Зачарованный дом/The Enchanted Cottage (2016) WEB-DLRip [MVO] [AD]
    Рейтинг →
     (голосов: 1, оценка 3/5, голосовать можно 1 раз )

    Другие торренты по теме:

  • Sphere 3: Enchanted world / Сфера 3: Зачарованный мир (2015) [Ru] (18.08.15) License скачать через торрент бесплатно
  • Sphere 3: Enchanted world / Сфера 3: Зачарованный мир (2015) [Ru] (28.06.15) License
  • Чилоэ. Зачарованный архипелаг / Chiloe Enchanted Arhipelago (2014) WEBRip [H.264 / 720p-LQ]
  • Sphere 3: Enchanted world / Сфера 3: Зачарованный мир (2015) [Ru] (23.01.18) License


    • Комментарии (0):

      Информация

      Информация

        Посетители, находящиеся в группе Гости, не могут оставлять комментарии в данной новости.

        ↓ Меню




        ↓ Опрос

        Вы добавили сайт в закладки?
        Да
        Нет


        Top 10 за месяц (Другое)