.
Авторизация | Регистрация
Хочешь лучшие торренты? Добавь свой email!
Добавить

Торрент скачать бесплатно

» » Соседка / The Girl Next Door (2004) BDRip [H.264 / 720p] [Unrated] [Hand Made 60FPS] торрент скачать бесплатно


    Соседка / The Girl Next Door (2004) BDRip [H.264 / 720p] [Unrated] [Hand Made 60FPS] торрент скачать бесплатно

    Опубликовал: Админ | Дата: 18-12-2017, 05:00 | .torrent скачали: 1

    Соседка / The Girl Next Door (2004) BDRip [H.264 / 720p] [Unrated] [Hand Made 60FPS]Производство: США, Epsilon Motion Pictures
    Жанр: Комедия, Мелодрама
    Режиссер: Люк Гринфилд

    Актеры
    Эмиль Хирш, Элиша Катберт, Тимоти Олифант, Джеймс Римар, Крис Маркетт, Пол Дано, Тимоти Боттомс, Донна Баллок, Джейкоб Янг, Брайан Колодзей

    Описание

    Старшеклассник Меттью, мечтая о карьере политика, между тем обнаруживает, что у него появилась новая соседка, неотразимая 19-летняя блондинка Дениэль. Цветочно-конфетная стадия пролетает мимолетно, и вот уже ослепленной любовью Меттью уверен, что он нашел женщину всей своей жизни.
    Каково же было его изумление, когда он вместе со всем городом узнаёт, что она — бывшая порнозвезда. И чтобы удержать ее, ему теперь придется рискнуть креслом сенатора и пройти испытание, к которому он не был готов…

    Возраст: 16+ (зрителям, достигшим 16 лет)
    Рейтинг MPAA: R (лицам до 17 лет обязательно присутствие взрослого)
    Релиз от: envy
    Продолжительность: 01: 49: 28
    Качество видео: BDRip
    Перевод: Дублированный
    Субтитры: Русские, Английские
    Видео: AVC/H.264, 1280x694, ~7892 kbps
    Аудио 1: AC3, 6 ch, 448 kbps
    Аудио 2: AC3, 6 ch, 448 kbps

    Format : Matroska
    Format version : Version 2
    File size : 6.86 GiB
    Duration : 1 h 49 min
    Overall bit rate : 8 967 kb/s
    Movie name : The Girl Next Door.(2004).BDRip.720p.envy.60fps
    Encoded date : UTC 2017-11-12 16: 43: 49
    Writing application : mkvmerge v5.8.0 (\'No Sleep/Pillow\') built on Sep 2 2012 15: 37: 04
    Writing library : libebml v1.2.3 + libmatroska v1.3.0
    Video
    ID : 1
    Format : AVC
    Format/Info : Advanced Video Codec
    Format profile : High@L4.1
    Format settings : CABAC/9 Ref Frames
    Format settings, CABAC : Yes
    Format settings, ReFrames : 9 frames
    Codec ID : V_MPEG4/ISO/AVC
    Duration : 1 h 49 min
    Bit rate : 7 892 kb/s
    Width : 1 280 pixels
    Height : 694 pixels
    Display aspect ratio : 1.85: 1
    Frame rate mode : Constant
    Frame rate : 60.000 FPS
    Color space : YUV
    Chroma subsampling : 4: 2: 0
    Bit depth : 8 bits
    Scan type : Progressive
    Bits/(Pixel*Frame) : 0.148
    Stream size : 6.04 GiB (88%)
    Title : The Girl Next Door.(2004).BDRip.720p.envy.60fps
    Writing library : x264 core 146 r2538 121396c
    Encoding settings : cabac=1/ref=9/deblock=1: 0: 0/analyse=0x3: 0x113/me=umh/subme=11/psy=1/psy_rd=1.00: 0.00/mixed_ref=1/me_range=24/chroma_me=1/trellis=2/8x8dct=1/cqm=0/deadzone=21, 11/fast_pskip=0/chroma_qp_offset=-2/threads=12/lookahead_threads=1/sliced_threads=0/nr=0/decimate=1/interlaced=0/bluray_compat=0/constrained_intra=0/bframes=5/b_pyramid=2/b_adapt=2/b_bias=0/direct=3/weightb=1/open_gop=0/weightp=2/keyint=250/keyint_min=25/scenecut=40/intra_refresh=0/rc=crf/mbtree=0/crf=16.6/qcomp=0.60/qpmin=0/qpmax=69/qpstep=4/ip_ratio=1.40/pb_ratio=1.30/aq=3: 0.80
    Language : English
    Default : Yes
    Forced : No
    Audio #1
    ID : 2
    Format : AC-3
    Format/Info : Audio Coding 3
    Codec ID : A_AC3
    Duration : 1 h 49 min
    Bit rate mode : Constant
    Bit rate : 448 kb/s
    Channel(s) : 6 channels
    Channel positions : Front: L C R, Side: L R, LFE
    Sampling rate : 48.0 kHz
    Frame rate : 31.250 FPS (1536 SPF)
    Bit depth : 16 bits
    Compression mode : Lossy
    Stream size : 351 MiB (5%)
    Title : Dub
    Language : Russian
    Service kind : Complete Main
    Default : Yes
    Forced : No
    Audio #2
    ID : 3
    Format : AC-3
    Format/Info : Audio Coding 3
    Codec ID : A_AC3
    Duration : 1 h 49 min
    Bit rate mode : Constant
    Bit rate : 448 kb/s
    Channel(s) : 6 channels
    Channel positions : Front: L C R, Side: L R, LFE
    Sampling rate : 48.0 kHz
    Frame rate : 31.250 FPS (1536 SPF)
    Bit depth : 16 bits
    Compression mode : Lossy
    Stream size : 351 MiB (5%)
    Title : Eng
    Language : English
    Service kind : Complete Main
    Default : No
    Forced : No
    Text #1
    ID : 4
    Format : UTF-8
    Codec ID : S_TEXT/UTF8
    Codec ID/Info : UTF-8 Plain Text
    Title : Rus full
    Language : Russian
    Default : No
    Forced : No
    Text #2
    ID : 5
    Format : UTF-8
    Codec ID : S_TEXT/UTF8
    Codec ID/Info : UTF-8 Plain Text
    Title : Eng full
    Language : English
    Default : No
    Forced : No
    Menu
    00: 00: 00.000 : : Chapter 01
    00: 03: 14.819 : : Chapter 02
    00: 04: 54.585 : : Chapter 03
    00: 07: 25.153 : : Chapter 04
    00: 10: 07.189 : : Chapter 05
    00: 15: 11.076 : : Chapter 06
    00: 21: 10.185 : : Chapter 07
    00: 25: 47.254 : : Chapter 08
    00: 29: 47.869 : : Chapter 09
    00: 34: 42.246 : : Chapter 10
    00: 38: 41.277 : : Chapter 11
    00: 45: 05.869 : : Chapter 12
    00: 49: 22.793 : : Chapter 13
    00: 55: 30.076 : : Chapter 14
    00: 58: 45.772 : : Chapter 15
    01: 00: 52.023 : : Chapter 16
    01: 05: 16.454 : : Chapter 17
    01: 08: 33.400 : : Chapter 18
    01: 11: 21.151 : : Chapter 19
    01: 15: 03.373 : : Chapter 20
    01: 18: 32.249 : : Chapter 21
    01: 20: 56.518 : : Chapter 22
    01: 23: 44.227 : : Chapter 23
    01: 27: 14.103 : : Chapter 24
    01: 33: 22.888 : : Chapter 25
    01: 35: 40.901 : : Chapter 26
    01: 40: 31.275 : : Chapter 27
    01: 43: 49.389 : : Chapter 28

    Скриншоты для ознакомления



    Все одноименные релизы в Клубе
    Время раздачи: до появления первых 3-5 скачавших (до появления первых 3-5 скачавших)


    Соседка/The Girl Next Door (2004) BDRip [H.264/720p] [Unrated] [Hand Made 60FPS]
    Рейтинг →
     (голосов: 1, оценка 5/5, голосовать можно 1 раз )

    Другие торренты по теме:

  • Плохая соседка (2015) WEB-DL [H.264 / 1080p-LQ]
  • Плохая соседка (2015) WEB-DLRip [576p] iPad
  • Плохая соседка (2015) WEB-DL [H.264 / 720p-LQ] скачать через торрент бесплатно
  • Плохая соседка (2015) WEB-DLRip скачать через торрент бесплатно
  • Плохая соседка (2015) WEB-DL [1080p] ATV скачать через торрент бесплатно
  • Кира Измайлова | Серый и соседка (2017) [FB2]


    • Комментарии (0):

      Информация

      Информация

        Посетители, находящиеся в группе Гости, не могут оставлять комментарии в данной новости.

        ↓ Меню




        ↓ Опрос

        Вы добавили сайт в закладки?
        Да
        Нет


        Top 10 за месяц (Другое)