.
Авторизация | Регистрация
Хочешь лучшие торренты? Добавь свой email!
Добавить

Торрент скачать бесплатно

  • support: webmaster@btracker.org
» » James Zabiela - Balance 029 (2018) Balance Music [FLAC|Lossless|tracks+.cue] <Tech House, Techno, Acid, IDM, Downtempo, Deep House> торрент скачать бесплатно


    James Zabiela - Balance 029 (2018) Balance Music [FLAC|Lossless|tracks+.cue] <Tech House, Techno, Acid, IDM, Downtempo, Deep House> торрент скачать бесплатно

    Опубликовал: Админ | Дата: 1-06-2018, 05:00 | .torrent скачали: 0

    James Zabiela - Balance 029 (2018) Balance Music [FLAC|Lossless|tracks+.cue] &ltTech House, Techno, Acid, IDM, Downtempo, Deep House>Продолжительность : 01: 09: 58
    Треклист :
    01. Sapphire Slows, Kornél Kovács, Barry Lynn - Silent Escape, Szikra, Alpha Tauri (01: 35)
    02. Earlham Mystics - Truth (03: 57)
    03. B12 - Untold (04: 00)
    04. VC-118A - Face The Waves (01: 54)
    05. Grandbrothers - Bloodflow (05: 25)
    06. Sad City - Steady Jam (04: 03)
    07. Talaboman, Francisco Branda - Safe Changes, Hyena (05: 26)
    08. Ecco Foul - Gloss (03: 03)
    09. Pye Corner Audio, HOLOVR - Dead Ends, Into Light (07: 21)
    10. Debussy, Island People - Reverie 68 (Second Story Appleblim Rework), Distance 7 (02: 13)
    11. Oddhoody - The Deep (04: 49)
    12. Merrin Karras, Pev Kowton - Void, Junked (05: 44)
    13. Davis - Plenitude (04: 14)
    14. Ozel AB - Positronic Dreams (03: 36)
    15. OOBE - Crush Mind (02: 46)
    16. Courser - Distances (03: 22)
    17. James Zabiela - Vines (03: 48)
    18. AAAA, ARCHITECTURAL - Jazz D, Cubismo 8.2 (Lost In Buenos Aires I) (02: 42)

    Exact Audio Copy V1.3 from 2. September 2016
    EAC extraction logfile from 20. February 2018, 9: 24
    Various/Balance 029 Disc 1
    Used drive : PLEXTOR DVDR PX-891SAW Adapter: 1 ID: 0
    Read mode : Secure
    Utilize accurate stream : Yes
    Defeat audio cache : Yes
    Make use of C2 pointers : No
    Read offset correction : 48
    Overread into Lead-In and Lead-Out : No
    Fill up missing offset samples with silence : Yes
    Delete leading and trailing silent blocks : No
    Null samples used in CRC calculations : Yes
    Used interface : Native Win32 interface for Win NT 2000
    Gap handling : Appended to previous track
    Used output format : User Defined Encoder
    Selected bitrate : 1024 kBit/s
    Quality : High
    Add ID3 tag : No
    Command line compressor : C: Program Files (x86)Exact Audio CopyFlacflac.exe
    Additional command line options : -8 -V -T ARTIST=%artist% -T TITLE=%title% -T ALBUM=%albumtitle% -T DATE=%year% -T TRACKNUMBER=%tracknr% -T GENRE=%genre% -T PERFORMER=%albuminterpret% -T COMPOSER=%composer% %haslyrics%--tag-from-file=LYRICS=%lyricsfile%%haslyrics% -T ALBUMARTIST=%albumartist% -T DISCNUMBER=%cdnumber% -T TOTALDISCS=%totalcds% -T TOTALTRACKS=%numtracks% -T COMMENT=%comment% %source% -o %dest%
    TOC of the extracted CD
    Track | Start | Length | Start sector | End sector
    ---------------------------------------------------------
    1 | 0: 00.00 | 1: 34.51 | 0 | 7100
    2 | 1: 34.51 | 3: 57.13 | 7101 | 24888
    3 | 5: 31.64 | 4: 00.14 | 24889 | 42902
    4 | 9: 32.03 | 1: 54.35 | 42903 | 51487
    5 | 11: 26.38 | 5: 25.15 | 51488 | 75877
    6 | 16: 51.53 | 4: 03.16 | 75878 | 94118
    7 | 20: 54.69 | 5: 26.13 | 94119 | 118581
    8 | 26: 21.07 | 3: 03.33 | 118582 | 132339
    9 | 29: 24.40 | 7: 21.21 | 132340 | 165435
    10 | 36: 45.61 | 2: 12.65 | 165436 | 175400
    11 | 38: 58.51 | 4: 48.55 | 175401 | 197055
    12 | 43: 47.31 | 5: 43.54 | 197056 | 222834
    13 | 49: 31.10 | 4: 13.48 | 222835 | 241857
    14 | 53: 44.58 | 3: 35.53 | 241858 | 258035
    15 | 57: 20.36 | 2: 45.53 | 258036 | 270463
    16 | 60: 06.14 | 3: 22.01 | 270464 | 285614
    17 | 63: 28.15 | 3: 48.18 | 285615 | 302732
    18 | 67: 16.33 | 2: 41.59 | 302733 | 314866
    Track 1
    Filename D: Rips1 - Sapphire Slows, Kornel Kovacs, Barry Lynn - Silent Escape, Szikra, Alpha Tauri.wav
    Pre-gap length 0: 00: 02.00
    Peak level 98.8 %
    Extraction speed 3.8 X
    Track quality 100.0 %
    Test CRC 63438C4A
    Copy CRC 63438C4A
    Track not present in AccurateRip database
    Copy OK
    Track 2
    Filename D: Rips2 - Earlham Mystics - Truth.wav
    Peak level 98.8 %
    Extraction speed 5.0 X
    Track quality 100.0 %
    Test CRC F14FF6D2
    Copy CRC F14FF6D2
    Track not present in AccurateRip database
    Copy OK
    Track 3
    Filename D: Rips3 - B12 - Untold.wav
    Peak level 98.8 %
    Extraction speed 5.4 X
    Track quality 100.0 %
    Test CRC C8327526
    Copy CRC C8327526
    Track not present in AccurateRip database
    Copy OK
    Track 4
    Filename D: Rips4 - VC-118A - Face The Waves.wav
    Peak level 98.8 %
    Extraction speed 5.0 X
    Track quality 100.0 %
    Test CRC 2B86503D
    Copy CRC 2B86503D
    Track not present in AccurateRip database
    Copy OK
    Track 5
    Filename D: Rips5 - Grandbrothers - Bloodflow.wav
    Peak level 98.8 %
    Extraction speed 6.3 X
    Track quality 100.0 %
    Test CRC 8A270A13
    Copy CRC 8A270A13
    Track not present in AccurateRip database
    Copy OK
    Track 6
    Filename D: Rips6 - Sad City - Steady Jam.wav
    Peak level 98.8 %
    Extraction speed 6.5 X
    Track quality 100.0 %
    Test CRC 3E31CDEB
    Copy CRC 3E31CDEB
    Track not present in AccurateRip database
    Copy OK
    Track 7
    Filename D: Rips7 - Talaboman, Francisco Branda - Safe Changes.wav
    Peak level 98.8 %
    Extraction speed 7.1 X
    Track quality 100.0 %
    Test CRC FA23C22C
    Copy CRC FA23C22C
    Track not present in AccurateRip database
    Copy OK
    Track 8
    Filename D: Rips8 - Ecco Foul - Gloss.wav
    Peak level 98.8 %
    Extraction speed 6.9 X
    Track quality 100.0 %
    Test CRC F9EF959F
    Copy CRC F9EF959F
    Track not present in AccurateRip database
    Copy OK
    Track 9
    Filename D: Rips9 - Pye Corner Audio, HOLOVR - Dead Ends, Into Light.wav
    Peak level 98.8 %
    Extraction speed 8.1 X
    Track quality 100.0 %
    Test CRC 12C1DB57
    Copy CRC 12C1DB57
    Track not present in AccurateRip database
    Copy OK
    Track 10
    Filename D: Rips10 - Claude Debussy, Island People - Reverie 68 (Second Story Appleblim Rework), Distance 7.wav
    Peak level 98.8 %
    Extraction speed 7.2 X
    Track quality 100.0 %
    Test CRC 3FBA7953
    Copy CRC 3FBA7953
    Track not present in AccurateRip database
    Copy OK
    Track 11
    Filename D: Rips11 - Oddhoody - The Deep.wav
    Peak level 98.8 %
    Extraction speed 8.2 X
    Track quality 100.0 %
    Test CRC D100A2E3
    Copy CRC D100A2E3
    Track not present in AccurateRip database
    Copy OK
    Track 12
    Filename D: Rips12 - Merrin Karras, Pev Kowton - Void, Junked.wav
    Peak level 98.8 %
    Extraction speed 8.8 X
    Track quality 100.0 %
    Test CRC 066B2BA4
    Copy CRC 066B2BA4
    Track not present in AccurateRip database
    Copy OK
    Track 13
    Filename D: Rips13 - Davis - Plenitude.wav
    Peak level 98.8 %
    Extraction speed 6.0 X
    Track quality 99.9 %
    Test CRC 34B5C924
    Copy CRC 34B5C924
    Track not present in AccurateRip database
    Copy OK
    Track 14
    Filename D: Rips14 - Ozel AB - Positronic Dreams.wav
    Peak level 98.8 %
    Extraction speed 8.8 X
    Track quality 100.0 %
    Test CRC 8C4F2709
    Copy CRC 8C4F2709
    Track not present in AccurateRip database
    Copy OK
    Track 15
    Filename D: Rips15 - OOBE - Crush Mind.wav
    Peak level 98.8 %
    Extraction speed 8.5 X
    Track quality 100.0 %
    Test CRC 0FF8890F
    Copy CRC 0FF8890F
    Track not present in AccurateRip database
    Copy OK
    Track 16
    Filename D: Rips16 - Courser - Distances.wav
    Peak level 98.8 %
    Extraction speed 9.1 X
    Track quality 100.0 %
    Test CRC C56C4330
    Copy CRC C56C4330
    Track not present in AccurateRip database
    Copy OK
    Track 17
    Filename D: Rips17 - James Zabiela - Vines.wav
    Peak level 98.8 %
    Extraction speed 9.3 X
    Track quality 100.0 %
    Test CRC E7FA24FD
    Copy CRC E7FA24FD
    Track not present in AccurateRip database
    Copy OK
    Track 18
    Filename D: Rips18 - AAAA, ARCHITECTURAL - Jazz D, Cubismo 8.2.wav
    Peak level 98.0 %
    Extraction speed 8.8 X
    Track quality 100.0 %
    Test CRC 240FD152
    Copy CRC 240FD152
    Track not present in AccurateRip database
    Copy OK
    None of the tracks are present in the AccurateRip database
    No errors occurred
    End of status report
    ---- CUETools DB Plugin V2.1.6
    CTDB TOCID: cK0_AN6cYHGl984JWbXiHhmVvJI- disk not present in database
    Submit result: cK0_AN6cYHGl984JWbXiHhmVvJI- has been uploaded
    ==== Log checksum 454D16C60C9C0D5F83BCE7B4CD35EC6CC645D32E5325494369D1A55A5457A17D ====

    REM GENRE Electronic
    REM DATE 2018
    REM DISCID FA106612
    REM COMMENT ExactAudioCopy v1.3
    PERFORMER Various
    TITLE Balance 029
    REM COMPOSER
    FILE 01 - Sapphire Slows, Kornél Kovács, Barry Lynn - Silent Escape, Szikra, Alpha Tauri.wav WAVE
    TRACK 01 AUDIO
    TITLE Silent Escape, Szikra, Alpha Tauri
    PERFORMER Sapphire Slows, Kornel Kovacs, Barry Lynn
    REM COMPOSER
    INDEX 01 00: 00: 00
    FILE 02 - Earlham Mystics - Truth.wav WAVE
    TRACK 02 AUDIO
    TITLE Truth
    PERFORMER Earlham Mystics
    REM COMPOSER
    INDEX 01 00: 00: 00
    FILE 03 - B12 - Untold.wav WAVE
    TRACK 03 AUDIO
    TITLE Untold
    PERFORMER B12
    REM COMPOSER
    INDEX 01 00: 00: 00
    FILE 04 - VC-118A - Face The Waves.wav WAVE
    TRACK 04 AUDIO
    TITLE Face The Waves
    PERFORMER VC-118A
    REM COMPOSER
    INDEX 01 00: 00: 00
    FILE 05 - Grandbrothers - Bloodflow.wav WAVE
    TRACK 05 AUDIO
    TITLE Bloodflow
    PERFORMER Grandbrothers
    REM COMPOSER
    INDEX 01 00: 00: 00
    FILE 06 - Sad City - Steady Jam.wav WAVE
    TRACK 06 AUDIO
    TITLE Steady Jam
    PERFORMER Sad City
    REM COMPOSER
    INDEX 01 00: 00: 00
    FILE 07 - Talaboman, Francisco Branda - Safe Changes.wav WAVE
    TRACK 07 AUDIO
    TITLE Safe Changes
    PERFORMER Talaboman, Francisco Branda
    REM COMPOSER
    INDEX 01 00: 00: 00
    FILE 08 - Ecco Foul - Gloss.wav WAVE
    TRACK 08 AUDIO
    TITLE Gloss
    PERFORMER Ecco Foul
    REM COMPOSER
    INDEX 01 00: 00: 00
    FILE 09 - Pye Corner Audio, HOLOVR - Dead Ends, Into Light.wav WAVE
    TRACK 09 AUDIO
    TITLE Dead Ends, Into Light
    PERFORMER Pye Corner Audio, HOLOVR
    REM COMPOSER
    INDEX 01 00: 00: 00
    FILE 10 - Claude Debussy, Island People - Reverie 68 (Second Story Appleblim Rework), Distance 7.wav WAVE
    TRACK 10 AUDIO
    TITLE Reverie 68 (Second Story Appleblim Rework), Distance 7
    PERFORMER Claude Debussy, Island People
    REM COMPOSER
    INDEX 01 00: 00: 00
    FILE 11 - Oddhoody - The Deep.wav WAVE
    TRACK 11 AUDIO
    TITLE The Deep
    PERFORMER Oddhoody
    REM COMPOSER
    INDEX 01 00: 00: 00
    FILE 12 - Merrin Karras, Pev Kowton - Void, Junked.wav WAVE
    TRACK 12 AUDIO
    TITLE Void, Junked
    PERFORMER Merrin Karras, Pev Kowton
    REM COMPOSER
    INDEX 01 00: 00: 00
    FILE 13 - Davis - Plenitude.wav WAVE
    TRACK 13 AUDIO
    TITLE Plenitude
    PERFORMER Davis
    REM COMPOSER
    INDEX 01 00: 00: 00
    FILE 14 - Ozel AB - Positronic Dreams.wav WAVE
    TRACK 14 AUDIO
    TITLE Positronic Dreams
    PERFORMER Ozel AB
    REM COMPOSER
    INDEX 01 00: 00: 00
    FILE 15 - OOBE - Crush Mind.wav WAVE
    TRACK 15 AUDIO
    TITLE Crush Mind
    PERFORMER OOBE
    REM COMPOSER
    INDEX 01 00: 00: 00
    FILE 16 - Courser - Distances.wav WAVE
    TRACK 16 AUDIO
    TITLE Distances
    PERFORMER Courser
    REM COMPOSER
    INDEX 01 00: 00: 00
    FILE 17 - James Zabiela - Vines.wav WAVE
    TRACK 17 AUDIO
    TITLE Vines
    PERFORMER James Zabiela
    REM COMPOSER
    INDEX 01 00: 00: 00
    FILE 18 - AAAA, ARCHITECTURAL - Jazz D, Cubismo 8.2.wav WAVE
    TRACK 18 AUDIO
    TITLE Jazz D, Cubismo 8.2
    PERFORMER AAAA, ARCHITECTURAL
    REM COMPOSER
    INDEX 01 00: 00: 00
    Продолжительность : 01: 16: 29
    Треклист :
    01. Goldmund, Earlham Mystics, Steve Hauschildt - Thread, Waters, Horizon Of Appearances (04: 28)
    02. Radio Slave, Avalon Emerson - Children Of The E (KiNK SP1200 Mix), The Frontier (High Desert Synthapella) (04: 59)
    03. James Zabiela - X-Ray (05: 29)
    04. Mak Pasteman, Pisetzky - Pulses, Vahana (04: 51)
    05. Lanark Artefax, John Beltran - Touch Absence, Under This Sky (04: 49)
    06. Lawrence - Simmer (Lake People Remix) (04: 50)
    07. Solitary Dancer, Chambray, Silas Snare, Redlight - Paradise Found (Rapture Version), Cerulean, Memories, City Jams (06: 29)
    08. Lake People, Truncate - Delusive, WRKTRX 3 (02: 48)
    09. Rod, Plant43 - Pull (With Christina), Frozen Monarch (04: 18)
    10. Sinfol - Crystalline (Featuring Barbara Ford) (04: 57)
    11. Steve Parker - Acid Planet (04: 03)
    12. Fabrizio Lapiana, SHDW Obscure Shape - Far Away, Augen Der Nacht (Ryan James Ford Version) (04: 57)
    13. Benjamin Damage - Montreal (02: 13)
    14. Mark Henning, Special Request, Wata Igarashi - Expander Six, Carex Vesicaria, Lucifero (05: 37)
    15. Paper Dollhouse - Crayons (01: 44)
    16. A Sagittariun, Anthony Linell - Vanishing Point, Fractal Vision (02: 59)
    17. Hans Berg, Sine Sleeper - In Dreams, Closing (02: 29)
    18. J. Mono - Sspses (04: 29)

    Exact Audio Copy V1.3 from 2. September 2016
    EAC extraction logfile from 20. February 2018, 10: 59
    Various/Balance 029 Disc 2
    Used drive : PLEXTOR DVDR PX-891SAW Adapter: 1 ID: 0
    Read mode : Secure
    Utilize accurate stream : Yes
    Defeat audio cache : Yes
    Make use of C2 pointers : No
    Read offset correction : 48
    Overread into Lead-In and Lead-Out : No
    Fill up missing offset samples with silence : Yes
    Delete leading and trailing silent blocks : No
    Null samples used in CRC calculations : Yes
    Used interface : Native Win32 interface for Win NT 2000
    Gap handling : Appended to previous track
    Used output format : User Defined Encoder
    Selected bitrate : 1024 kBit/s
    Quality : High
    Add ID3 tag : No
    Command line compressor : C: Program Files (x86)Exact Audio CopyFlacflac.exe
    Additional command line options : -8 -V -T ARTIST=%artist% -T TITLE=%title% -T ALBUM=%albumtitle% -T DATE=%year% -T TRACKNUMBER=%tracknr% -T GENRE=%genre% -T PERFORMER=%albuminterpret% -T COMPOSER=%composer% %haslyrics%--tag-from-file=LYRICS=%lyricsfile%%haslyrics% -T ALBUMARTIST=%albumartist% -T DISCNUMBER=%cdnumber% -T TOTALDISCS=%totalcds% -T TOTALTRACKS=%numtracks% -T COMMENT=%comment% %source% -o %dest%
    TOC of the extracted CD
    Track | Start | Length | Start sector | End sector
    ---------------------------------------------------------
    1 | 0: 00.00 | 4: 27.71 | 0 | 20095
    2 | 4: 27.71 | 4: 59.07 | 20096 | 42527
    3 | 9: 27.03 | 5: 29.23 | 42528 | 67225
    4 | 14: 56.26 | 4: 51.04 | 67226 | 89054
    5 | 19: 47.30 | 4: 49.06 | 89055 | 110735
    6 | 24: 36.36 | 4: 49.39 | 110736 | 132449
    7 | 29: 26.00 | 6: 28.43 | 132450 | 161592
    8 | 35: 54.43 | 2: 47.45 | 161593 | 174162
    9 | 38: 42.13 | 4: 17.70 | 174163 | 193507
    10 | 43: 00.08 | 4: 56.73 | 193508 | 215780
    11 | 47: 57.06 | 4: 03.33 | 215781 | 234038
    12 | 52: 00.39 | 4: 56.44 | 234039 | 256282
    13 | 56: 57.08 | 2: 13.03 | 256283 | 266260
    14 | 59: 10.11 | 5: 36.52 | 266261 | 291512
    15 | 64: 46.63 | 1: 43.59 | 291513 | 299296
    16 | 66: 30.47 | 2: 59.08 | 299297 | 312729
    17 | 69: 29.55 | 2: 28.50 | 312730 | 323879
    18 | 71: 58.30 | 4: 28.62 | 323880 | 344041
    Track 1
    Filename D: Rips1 - Goldmund, Earlham Mystics, Steve Hauschildt - Thread, Waters, Horizon Of Appearances.wav
    Pre-gap length 0: 00: 02.00
    Peak level 98.8 %
    Extraction speed 5.0 X
    Track quality 100.0 %
    Test CRC 8BE2F8B2
    Copy CRC 8BE2F8B2
    Track not present in AccurateRip database
    Copy OK
    Track 2
    Filename D: Rips2 - Radio Slave, Avalon Emerson - Children Of The E (KiNK SP1200 Mix), The Frontier (High Desert Synthapella).wav
    Peak level 98.8 %
    Extraction speed 5.7 X
    Track quality 100.0 %
    Test CRC D4289EEB
    Copy CRC D4289EEB
    Track not present in AccurateRip database
    Copy OK
    Track 3
    Filename D: Rips3 - James Zabiela - X-Ray.wav
    Peak level 98.8 %
    Extraction speed 4.7 X
    Track quality 99.9 %
    Test CRC 20D4A398
    Copy CRC 20D4A398
    Track not present in AccurateRip database
    Copy OK
    Track 4
    Filename D: Rips4 - Mak Pasteman, Pisetzky - Pulses, Vahana.wav
    Peak level 98.8 %
    Extraction speed 6.8 X
    Track quality 100.0 %
    Test CRC FD8761E9
    Copy CRC FD8761E9
    Track not present in AccurateRip database
    Copy OK
    Track 5
    Filename D: Rips5 - Lanark Artefax, John Beltran - Touch Absence, Under This Sky.wav
    Peak level 98.8 %
    Extraction speed 7.2 X
    Track quality 100.0 %
    Test CRC EF625D89
    Copy CRC EF625D89
    Track not present in AccurateRip database
    Copy OK
    Track 6
    Filename D: Rips6 - Lawrence - Simmer (Lake People Remix).wav
    Peak level 98.8 %
    Extraction speed 5.5 X
    Track quality 99.9 %
    Test CRC CF269F2B
    Copy CRC CF269F2B
    Track not present in AccurateRip database
    Copy OK
    Track 7
    Filename D: Rips7 - Solitary Dancer, Chambray, Silas Snare, Redlight - Paradise Found (Rapture Version), Cerulean, Memories, City Jams.wav
    Peak level 98.8 %
    Extraction speed 8.3 X
    Track quality 100.0 %
    Test CRC CEF36C3C
    Copy CRC CEF36C3C
    Track not present in AccurateRip database
    Copy OK
    Track 8
    Filename D: Rips8 - Lake People, Truncate - Delusive, WRKTRX 3.wav
    Peak level 98.8 %
    Extraction speed 7.7 X
    Track quality 100.0 %
    Test CRC 7FEEE95D
    Copy CRC 7FEEE95D
    Track not present in AccurateRip database
    Copy OK
    Track 9
    Filename D: Rips9 - Rod, Plant 43 - Pull (With Christina), Frozen Monarch.wav
    Peak level 98.8 %
    Extraction speed 6.0 X
    Track quality 99.9 %
    Test CRC D5B7FBF3
    Copy CRC D5B7FBF3
    Track not present in AccurateRip database
    Copy OK
    Track 10
    Filename D: Rips10 - Sinfol - Crystalline featuring Barbara Ford.wav
    Peak level 98.8 %
    Extraction speed 9.0 X
    Track quality 100.0 %
    Test CRC 58E94DBD
    Copy CRC 58E94DBD
    Track not present in AccurateRip database
    Copy OK
    Track 11
    Filename D: Rips11 - Steve Parker - Acid Planet.wav
    Peak level 98.8 %
    Extraction speed 9.0 X
    Track quality 100.0 %
    Test CRC 2911B83B
    Copy CRC 2911B83B
    Track not present in AccurateRip database
    Copy OK
    Track 12
    Filename D: Rips12 - Fabrizio Lapiana, SHDW Obscure Shape - Far Away, Augen Der Nacht (Ryan James Ford Version).wav
    Peak level 98.8 %
    Extraction speed 9.6 X
    Track quality 100.0 %
    Test CRC 50D8BA10
    Copy CRC 50D8BA10
    Track not present in AccurateRip database
    Copy OK
    Track 13
    Filename D: Rips13 - Benjamin Damage - Montreal.wav
    Peak level 98.8 %
    Extraction speed 8.7 X
    Track quality 100.0 %
    Test CRC E548F354
    Copy CRC E548F354
    Track not present in AccurateRip database
    Copy OK
    Track 14
    Filename D: Rips14 - Mark Hennin, Special Request, Wata Igarashi - Expander Six, Carex Vesicaria, Lucifero.wav
    Peak level 98.8 %
    Extraction speed 10.1 X
    Track quality 100.0 %
    Test CRC 340CF826
    Copy CRC 340CF826
    Track not present in AccurateRip database
    Copy OK
    Track 15
    Filename D: Rips15 - Paper Dollhouse - Crayons.wav
    Peak level 98.8 %
    Extraction speed 8.4 X
    Track quality 100.0 %
    Test CRC 6396866D
    Copy CRC 6396866D
    Track not present in AccurateRip database
    Copy OK
    Track 16
    Filename D: Rips16 - A Sagittariun, Anthony Linell - Vanishing Point, Fractal Vision.wav
    Peak level 98.8 %
    Extraction speed 9.5 X
    Track quality 100.0 %
    Test CRC C0BA0CA7
    Copy CRC C0BA0CA7
    Track not present in AccurateRip database
    Copy OK
    Track 17
    Filename D: Rips17 - Hans Berg, Sine Sleeper - In Dreams, Closing.wav
    Peak level 98.8 %
    Extraction speed 9.2 X
    Track quality 100.0 %
    Test CRC 0E3C7A42
    Copy CRC 0E3C7A42
    Track not present in AccurateRip database
    Copy OK
    Track 18
    Filename D: Rips18 - J. Mono - Sspses.wav
    Peak level 98.8 %
    Extraction speed 10.3 X
    Track quality 100.0 %
    Test CRC 4C63BC2B
    Copy CRC 4C63BC2B
    Track not present in AccurateRip database
    Copy OK
    None of the tracks are present in the AccurateRip database
    No errors occurred
    End of status report
    ---- CUETools DB Plugin V2.1.6
    CTDB TOCID: V7PZ1RwjDcTaZ3eHV2bNDYjCGGk- disk not present in database
    Submit result: V7PZ1RwjDcTaZ3eHV2bNDYjCGGk- has been uploaded
    ==== Log checksum 6D31753C555659579DAC9DC2D5BA952DA55F016E3F38B00375868687F19A3FC6 ====

    REM GENRE Electronic
    REM DATE 2018
    REM DISCID 3211EB12
    REM COMMENT ExactAudioCopy v1.3
    PERFORMER Various
    TITLE Balance 029
    REM COMPOSER
    FILE 01 - Goldmund, Earlham Mystics, Steve Hauschildt - Thread, Waters, Horizon Of Appearances.wav WAVE
    TRACK 01 AUDIO
    TITLE Thread, Waters, Horizon Of Appearances
    PERFORMER Goldmund, Earlham Mystics, Steve Hauschildt
    REM COMPOSER
    INDEX 01 00: 00: 00
    FILE 02 - Radio Slave, Avalon Emerson - Children Of The E (KiNK SP1200 Mix), The Frontier (High Desert Synthapella).wav WAVE
    TRACK 02 AUDIO
    TITLE Children Of The E (KiNK SP1200 Mix), The Frontier (High Desert Synthapella)
    PERFORMER Radio Slave, Avalon Emerson
    REM COMPOSER
    INDEX 01 00: 00: 00
    FILE 03 - James Zabiela - X-Ray.wav WAVE
    TRACK 03 AUDIO
    TITLE X-Ray
    PERFORMER James Zabiela
    REM COMPOSER
    INDEX 01 00: 00: 00
    FILE 04 - Mak Pasteman, Pisetzky - Pulses, Vahana.wav WAVE
    TRACK 04 AUDIO
    TITLE Pulses, Vahana
    PERFORMER Mak Pasteman, Pisetzky
    REM COMPOSER
    INDEX 01 00: 00: 00
    FILE 05 - Lanark Artefax, John Beltran - Touch Absence, Under This Sky.wav WAVE
    TRACK 05 AUDIO
    TITLE Touch Absence, Under This Sky
    PERFORMER Lanark Artefax, John Beltran
    REM COMPOSER
    INDEX 01 00: 00: 00
    FILE 06 - Lawrence - Simmer (Lake People Remix).wav WAVE
    TRACK 06 AUDIO
    TITLE Simmer (Lake People Remix)
    PERFORMER Lawrence
    REM COMPOSER
    INDEX 01 00: 00: 00
    FILE 07 - Solitary Dancer, Chambray, Silas Snare, Redlight - Paradise Found (Rapture Version), Cerulean, Memories, City Jams.wav WAVE
    TRACK 07 AUDIO
    TITLE Paradise Found (Rapture Version), Cerulean, Memories, City Jams
    PERFORMER Solitary Dancer, Chambray, Silas Snare, Redlight
    REM COMPOSER
    INDEX 01 00: 00: 00
    FILE 08 - Lake People, Truncate - Delusive, WRKTRX 3.wav WAVE
    TRACK 08 AUDIO
    TITLE Delusive, WRKTRX 3
    PERFORMER Lake People, Truncate
    REM COMPOSER
    INDEX 01 00: 00: 00
    FILE 09 - Rod, Plant 43 - Pull (With Christina), Frozen Monarch.wav WAVE
    TRACK 09 AUDIO
    TITLE Pull (With Christina), Frozen Monarch
    PERFORMER Rod, Plant 43
    REM COMPOSER
    INDEX 01 00: 00: 00
    FILE 10 - Sinfol - Crystalline featuring Barbara Ford.wav WAVE
    TRACK 10 AUDIO
    TITLE Crystalline featuring Barbara Ford
    PERFORMER Sinfol
    REM COMPOSER
    INDEX 01 00: 00: 00
    FILE 11 - Steve Parker - Acid Planet.wav WAVE
    TRACK 11 AUDIO
    TITLE Acid Planet
    PERFORMER Steve Parker
    REM COMPOSER
    INDEX 01 00: 00: 00
    FILE 12 - Fabrizio Lapiana, SHDW Obscure Shape - Far Away, Augen Der Nacht (Ryan James Ford Version).wav WAVE
    TRACK 12 AUDIO
    TITLE Far Away, Augen Der Nacht (Ryan James Ford Version)
    PERFORMER Fabrizio Lapiana, SHDW Obscure Shape
    REM COMPOSER
    INDEX 01 00: 00: 00
    FILE 13 - Benjamin Damage - Montreal.wav WAVE
    TRACK 13 AUDIO
    TITLE Montreal
    PERFORMER Benjamin Damage
    REM COMPOSER
    INDEX 01 00: 00: 00
    FILE 14 - Mark Hennin, Special Request, Wata Igarashi - Expander Six, Carex Vesicaria, Lucifero.wav WAVE
    TRACK 14 AUDIO
    TITLE Expander Six, Carex Vesicaria, Lucifero
    PERFORMER Mark Hennin, Special Request, Wata Igarashi
    REM COMPOSER
    INDEX 01 00: 00: 00
    FILE 15 - Paper Dollhouse - Crayons.wav WAVE
    TRACK 15 AUDIO
    TITLE Crayons
    PERFORMER Paper Dollhouse
    REM COMPOSER
    INDEX 01 00: 00: 00
    FILE 16 - A Sagittariun, Anthony Linell - Vanishing Point, Fractal Vision.wav WAVE
    TRACK 16 AUDIO
    TITLE Vanishing Point, Fractal Vision
    PERFORMER A Sagittariun, Anthony Linell
    REM COMPOSER
    INDEX 01 00: 00: 00
    FILE 17 - Hans Berg, Sine Sleeper - In Dreams, Closing.wav WAVE
    TRACK 17 AUDIO
    TITLE In Dreams, Closing
    PERFORMER Hans Berg, Sine Sleeper
    REM COMPOSER
    INDEX 01 00: 00: 00
    FILE 18 - J. Mono - Sspses.wav WAVE
    TRACK 18 AUDIO
    TITLE Sspses
    PERFORMER J. Mono
    REM COMPOSER
    INDEX 01 00: 00: 00


    James Zabiela - Balance 029 (2018) Balance Music [FLAC|Lossless|tracks+.cue] <Tech House, Techno, Acid, IDM, Downtempo, Deep House>
    Рейтинг →
     (голосов: 1, оценка 3/5, голосовать можно 1 раз )

    Другие торренты по теме:

  • Jason James - Jason James (2015) [MP3|320 кб / с]<Texan Country> скачать через торрент бесплатно
  • VA - James Haskells Back Row Beats Workout (Mixed by James Haskell) (2018) [MP3|320 Kbps] <Progressive House, Deep House, Tech House>
  • James Haskell - James Haskells Back Row Beats Workout (2018) [FLAC|Lossless|WEB-DL|tracks] <Funky, Club House>
  • James Newton Howard - Голодные игры / The Hunger Games (Complete Motion Picture Score) (2012) [MP3|320 кб / с]<Soundtrack>
  • James Newton Howard - Голодные игры: И вспыхнет пламя / The Hunger Games: Catching Fire (Original Motion Picture Score) (2013) [MP3|320 кб / с]<Soundtrack>
  • Discovery: Будущее с Джеймсом Вудсом. Заменяя Бога / Futurescape with James Woods. Replacing God (2014) HDTVRip [H.264 / 720p] скачать через торрент бесплатно
  • Discovery: Будущее с Джеймсом Вудсом. Как стать суперчеловеком / Futurescape with James Woods. How to be a Superhuman (2014) HDTVRip [H.264 / 720p] скачать через торрент бесплатно
  • Discovery: Будущее с Джеймсом Вудсом. Я знаю, о чем ты думаешь / Futurescape with James Woods. I know what Youre thinking (2013) HDTVRip [H.264 / 720p] скачать через торрент бесплатно


    • Комментарии (0):

      Информация

      Информация

        Посетители, находящиеся в группе Гости, не могут оставлять комментарии в данной новости.

        ↓ Меню




        ↓ Опрос

        Вы добавили сайт в закладки?
        Да
        Нет


        Top 10 за месяц (Музыка)

        Павел Пламенев - Неофициальный сборник песен (2014 - 2016) [MP3|192 кб / с] <русский рок, рок>

        (скачиваний: 72)
        Нейромонах Феофан - 2 альбома, 4 сингла (2015-2017) [MP3|320 Kbps] <Drum & Bass, Neurofunk>

        (скачиваний: 70)
        Кипелов - Коллекция легендарных песен (2010) [MP3|320 кб / с]<Rock> скачать через торрент бесплатно

        (скачиваний: 49)
        Чиж & Co - Коллекция легендарных песен (2014) [MP3|320 кб / с]<Rock> скачать через торрент бесплатно

        (скачиваний: 46)
        Uma2rmaH (Uma2rman, Уматурман) feat. Павло Шевчук - Не нашего мира (2018) [MP3|320 Kbps] <Pop-Rock>

        (скачиваний: 37)
        И. С. Бах (J. S. Bach) - Полное собрание произведений (Hanssler 172 CD) (2000) [MP3|320 кб / с] <Classical>

        (скачиваний: 31)
        Юрий Визбор - Коллекция легендарных песен (2010) [MP3|320 кб / с]<Авторская песня> скачать через торрент бесплатно

        (скачиваний: 30)
        Zaz - 4 альбома (8CD) (2010 - 2014) Дискография [FLAC|Lossless]<Nu Jazz, Chanson, Soul> скачать через торрент бесплатно

        (скачиваний: 30)
        Дима Билан - 12 альбомов, 4 сингла (2003 - 2017) [MP3|320 Kbps] <Pop>

        (скачиваний: 29)
        БАСТА / НоГгано / N1NT3ND0 - 12 Альбомов (2006-2015) Дискография [FLAC|tracks, image+ .cue]<Rap, Hip-Hop> скачать через торрент бесплатно

        (скачиваний: 27)