.
Авторизация | Регистрация
Хочешь лучшие торренты? Добавь свой email!
Добавить

Торрент скачать бесплатно

  • support: webmaster@btracker.org
» » Олег Митяев - Нелучшие песни (2000) [FLAC (image+.cue) lossless]<Авторская песня> торрент скачать бесплатно


    Олег Митяев - Нелучшие песни (2000) [FLAC (image+.cue) lossless]<Авторская песня> торрент скачать бесплатно

    Опубликовал: Админ | Дата: 31-05-2018, 05:00 | .torrent скачали: 0

    Олег Митяев - Нелучшие песни (2000) [FLAC (image+.cue) lossless]<Авторская песня>Год: 2000
    Жанр: Авторская песня
    Продолжительность: 00: 59: 52
    Кодек: FLAC (*.flac)
    Битрейт: Lossless
    Тип рипа: image+.cue

    Треклист

    03: 24 01. Алыкель
    03: 39 02. Дым печной(Тютчеву)
    04: 01 03. Сахалин
    02: 25 04. Мой отец
    04: 01 05. Кандалакша
    03: 00 06. Песня для старшей дочери
    04: 34 07. Тоска
    03: 23 08. Женщина с планеты земля
    04: 05 09. Романс
    02: 38 10. Фрагмент
    03: 28 11. Шарлевиль
    02: 58 12. Почтовый чиновник
    02: 54 13. Праздник
    02: 11 14. Я приду к тебе
    03: 17 15. Тот день
    04: 29 16. Когда проходят дни запоя
    02: 29 17. А казалось бы ...
    02: 56 18. Не праздничные вещи
    Код: выделить все
    Exact Audio Copy V1.0 beta 1 from 15. November 2010
    Отчёт EAC об извлечении, выполненном 22. января 2011, 23:41
    Олег Митяев/Нелучшие песни
    Дисковод: PIONEER DVD-RW DVR-118L Adapter: 0 ID: 0
    Режим чтения : Достоверность
    Использование точного потока : Да
    Отключение кэша аудио : Да
    Использование указателей C2 : Нет
    Коррекция смещения при чтении : 6
    Способность читать области Lead-in и Lead-out : Нет
    Заполнение пропущенных сэмплов тишиной : Да
    Удаление блоков с тишиной в начале и конце : Нет
    При вычислениях CRC использовались нулевые сэмплы : Да
    Интерфейс : Встроенный Win32-интерфейс для Win NT/2000
    Выходной формат : Пользовательский кодировщик
    Выбранный битрейт : 768 kBit/s
    Качество : Высокий
    Добавление ID3-тэга : Нет
    Утилита сжатия : C:Program FilesExact Audio CopyFLACFLAC.EXE
    Дополнительные параметры : -6 -V -T ARTIST=%a -T TITLE=%t -T ALBUM=%g -T DATE=%y -T TRACKNUMBER=%n -T GENRE=%m -T COMMENT=%e %j--picture=%i%j %s -o %d
    TOC извлечённого CD
    Трек | Старт | Длительность | Начальный сектор | Конечный сектор
    ---------------------------------------------------------------------
    1 | 0:00.00 | 3:22.71 | 0 | 15220
    2 | 3:22.71 | 3:35.19 | 15221 | 31364
    3 | 6:58.15 | 4:01.25 | 31365 | 49464
    4 | 10:59.40 | 2:24.50 | 49465 | 60314
    5 | 13:24.15 | 4:01.25 | 60315 | 78414
    6 | 17:25.40 | 3:00.00 | 78415 | 91914
    7 | 20:25.40 | 4:33.50 | 91915 | 112439
    8 | 24:59.15 | 3:22.63 | 112440 | 127652
    9 | 28:22.03 | 4:05.06 | 127653 | 146033
    10 | 32:27.09 | 2:38.00 | 146034 | 157883
    11 | 35:05.09 | 3:28.00 | 157884 | 173483
    12 | 38:33.09 | 2:58.00 | 173484 | 186833
    13 | 41:31.09 | 2:53.50 | 186834 | 199858
    14 | 44:24.59 | 2:11.02 | 199859 | 209685
    15 | 46:35.61 | 3:17.14 | 209686 | 224474
    16 | 49:53.00 | 4:29.46 | 224475 | 244695
    17 | 54:22.46 | 2:28.59 | 244696 | 255854
    18 | 56:51.30 | 2:56.25 | 255855 | 269079
    Характеристики диапазона извлечения и сообщения об ошибках
    Выбранный диапазон
    Имя файла I:РаздачиОлег Митяев _Нелучшие песниОлег Митяев - Нелучшие песни.wav
    Пиковый уровень 95.5 %
    0.0 X
    Качество диапазона 100.0 %
    CRC теста 2824CCC7
    CRC копии 2824CCC7
    Копирование... OK
    Ошибок не произошло
    AccurateRip: сводка
    Трек 1 нет в базе данных
    Трек 2 нет в базе данных
    Трек 3 нет в базе данных
    Трек 4 нет в базе данных
    Трек 5 нет в базе данных
    Трек 6 нет в базе данных
    Трек 7 нет в базе данных
    Трек 8 нет в базе данных
    Трек 9 нет в базе данных
    Трек 10 нет в базе данных
    Трек 11 нет в базе данных
    Трек 12 нет в базе данных
    Трек 13 нет в базе данных
    Трек 14 нет в базе данных
    Трек 15 нет в базе данных
    Трек 16 нет в базе данных
    Трек 17 нет в базе данных
    Трек 18 нет в базе данных
    Ни одного трека нет в базе AccurateRip
    Конец отчёта
    ==== 04C3E0D58AE3D841ED70A1111A2A6A209524AD36E11D55C0526780AD7B074A74 ====
    AUDIOCHECKER v2.0 beta (build 457) - by Dester -opdester@freemail.hu
    ~~~~~~~~~~~~~~~~~~~~~~~~~~~~~~~~~~
    Начато: воскресенье, 23. 01. 2011. - 1: 04.40
    Найдено файлов: 1
    1 -===- I: РаздачиОлег Митяев _Нелучшие песниОлег Митяев - Нелучшие песни.flac
    Извлечение успешно выполнено
    Заключение: этот трек - CDDA с вероятностью 100%
    Временный файл удалён.
    Завершено: воскресенье, 23. 01. 2011. - 1: 16.33 (Время операции: 0: 11.52)
    Время раздачи: 10-22/7


    Олег Митяев - Нелучшие песни (2000) [FLAC (image+.cue) lossless]<Авторская песня>
    Рейтинг →
     (голосов: 1, оценка 3/5, голосовать можно 1 раз )

    Другие торренты по теме:

  • Олег Митяев - Презентация диска «Позабытое чувство» Москва, Крокус Сити Холл (04.12.2011) HDTV [H.264 / 1080i]
  • Олег Митяев - С добрым утром, любимая! (2017) [MP3|320 Kbps] <Авторская песня>


    • Комментарии (0):

      Информация

      Информация

        Посетители, находящиеся в группе Гости, не могут оставлять комментарии в данной новости.

        ↓ Меню




        ↓ Опрос

        Вы добавили сайт в закладки?
        Да
        Нет


        Top 10 за месяц (Музыка)

        Нейромонах Феофан - 2 альбома, 4 сингла (2015-2017) [MP3|320 Kbps] <Drum & Bass, Neurofunk>

        (скачиваний: 66)
        Павел Пламенев - Неофициальный сборник песен (2014 - 2016) [MP3|192 кб / с] <русский рок, рок>

        (скачиваний: 65)
        Кипелов - Коллекция легендарных песен (2010) [MP3|320 кб / с]<Rock> скачать через торрент бесплатно

        (скачиваний: 43)
        Чиж & Co - Коллекция легендарных песен (2014) [MP3|320 кб / с]<Rock> скачать через торрент бесплатно

        (скачиваний: 37)
        Uma2rmaH (Uma2rman, Уматурман) feat. Павло Шевчук - Не нашего мира (2018) [MP3|320 Kbps] <Pop-Rock>

        (скачиваний: 34)
        Юрий Визбор - Коллекция легендарных песен (2010) [MP3|320 кб / с]<Авторская песня> скачать через торрент бесплатно

        (скачиваний: 28)
        И. С. Бах (J. S. Bach) - Полное собрание произведений (Hanssler 172 CD) (2000) [MP3|320 кб / с] <Classical>

        (скачиваний: 26)
        Zaz - 4 альбома (8CD) (2010 - 2014) Дискография [FLAC|Lossless]<Nu Jazz, Chanson, Soul> скачать через торрент бесплатно

        (скачиваний: 26)
        БАСТА / НоГгано / N1NT3ND0 - 12 Альбомов (2006-2015) Дискография [FLAC|tracks, image+ .cue]<Rap, Hip-Hop> скачать через торрент бесплатно

        (скачиваний: 24)
        Дима Билан - 12 альбомов, 4 сингла (2003 - 2017) [MP3|320 Kbps] <Pop>

        (скачиваний: 23)