.
Авторизация | Регистрация
Хочешь лучшие торренты? Добавь свой email!
Добавить

Торрент скачать бесплатно

  • support: webmaster@btracker.org
» » Queen - A Kind Of Magic (1986) [FLAC 2.0|192 / 24|image + .cue|Vinyl-Rip] <Rock> торрент скачать бесплатно


    Queen - A Kind Of Magic (1986) [FLAC 2.0|192 / 24|image + .cue|Vinyl-Rip] <Rock> торрент скачать бесплатно

    Опубликовал: Админ | Дата: 31-05-2018, 05:00 | .torrent скачали: 0

    Queen - A Kind Of Magic (1986) [FLAC 2.0|192 / 24|image + .cue|Vinyl-Rip] &ltRock>Страна-производитель диска: UK
    Производство: EMI Records -EU 3509
    Жанр: Rock
    Продолжительность: 00: 40: 35
    Автор оцифровки: Bigbeer
    Кодек: FLAC 2.0
    Формат записи: 192/32
    Формат раздачи: 192/24
    Тип рипа: image+.cue

    Треклист

    01. One Vision(5: 11)
    02. A Kind Of Magic(4: 24)
    03. One Year Of Love(4: 29)
    04. Pain Is So Close To Pleasure(4: 23)
    05. Friends Will Be Friends(4: 06)
    06. Who Wants To Live Forever(5: 17)
    07. Gimme The Prize(4: 35)
    08. Don\'t Lose Your Head(4: 38)
    09. Princes Of The Universe(3: 32)
    Код класса состояния винила: EX
    Устройство воспроизведения: Technics SL-1200MK3D
    Головка звукоснимателя: Audio Technica AT150MLX
    Предварительный усилитель: Luxman L-510
    Межблочник: Proel Die Hard DHG535LU18
    АЦП: E-MU 1212m PCIe
    Программа-оцифровщик: Adobe Audition CC 8.0.0.192
    Обработка: убрал несколько щелчков, fade in/out (Adobe Audition CC 8.0.0.192)

    Общее
    Полное имя : H: VinylRipQueen - A Kind Of Magic (1986)(VR EMI Records EU - 3509, UK)Queen - A Kind Of Magic.flac
    Формат : FLAC
    Формат/Информация : Free Lossless Audio Codec
    Размер файла : 1, 46 Гбайт
    Продолжительность : 40 м. 34 с.
    Режим общего битрейта : Переменный
    Общий поток : 5145 Кбит/сек
    Альбом : A Kind Of Magic
    Трек/Всего : 9
    Исполнитель : Queen
    Продюсер : EMI Records - EU 3509
    Кодирование произвёл : Adobe Audition CC 2017
    Жанр : Rock
    Дата записи : 1986
    Обложка : Yes
    Тип обложки : Cover (front)
    MIME-тип обложки : image/jpeg
    Примечание : rip by Bigbeer/ Technics SL-1200MK3D/Audio Technica AT150MLX/Luxman L-510/Proel Die Hard DHG535LU18 /E-MU 1212m PCIe
    cuesheet : REM GENRE Rock/REM DATE 1986/REM DISCID EU 3509/REM COMMENT rip by Bigbeer/ Technics SL-1200MK3D/Audio Technica AT150MLX/Luxman L-510/Proel Die Hard DHG535LU18 /E-MU 1212m PCIe/PERFORMER Queen/TITLE A Kind Of Magic/FILE Queen - A Kind Of Magic.flac WAVE/TRACK 01 AUDIO/TITLE One Vision/INDEX 01 00: 00: 00/TRACK 02 AUDIO/TITLE A Kind Of Magic/INDEX 01 05: 10: 58/TRACK 03 AUDIO/TITLE One Year Of Love/INDEX 01 09: 35: 00/TRACK 04 AUDIO/TITLE Pain Is So Close To Pleasure/INDEX 01 14: 03: 57/TRACK 05 AUDIO/TITLE Friends Will Be Friends/INDEX 01 18: 27: 00/TRACK 06 AUDIO/TITLE Who Wants To Live Forever/INDEX 01 22: 32: 51/TRACK 07 AUDIO/TITLE Gimme The Prize/INDEX 01 27: 50: 00/TRACK 08 AUDIO/TITLE Don\'t Lose Your Head/INDEX 01 32: 24: 65/TRACK 09 AUDIO/TITLE Princes Of The Universe/INDEX 01 37: 02: 45
    Recorded/Location : NNM-Club.me
    Аудио
    Формат : FLAC
    Формат/Информация : Free Lossless Audio Codec
    Продолжительность : 40 м. 34 с.
    Вид битрейта : Переменный
    Битрейт : 5144 Кбит/сек
    Каналы : 2 канала
    Расположение каналов : Front: L R
    Частота : 192 КГц
    Битовая глубина : 24 бит
    Размер потока : 1, 46 Гбайт (100%)
    Библиотека кодирования : libFLAC 1.0.25 (UTC 2007-09-17)

    foobar2000 1.3.17/Замер динамического диапазона (DR) 1.1.1
    Дата отчёта: 2018-05-30 20: 04: 00
    --------------------------------------------------------------------------------
    Анализ: Queen/A Kind Of Magic
    --------------------------------------------------------------------------------
    DR Пики RMS Продолжительность трека
    --------------------------------------------------------------------------------
    DR12 -2.04 дБ -16.79 дБ 5: 11 01-One Vision
    DR15 0.00 дБ -16.76 дБ 4: 24 02-A Kind Of Magic
    DR13 -1.36 дБ -17.24 дБ 4: 29 03-One Year Of Love
    DR13 -1.11 дБ -15.69 дБ 4: 23 04-Pain Is So Close To Pleasure
    DR11 -1.36 дБ -16.19 дБ 4: 06 05-Friends Will Be Friends
    DR13 -1.07 дБ -19.45 дБ 5: 17 06-Who Wants To Live Forever
    DR12 -1.54 дБ -16.29 дБ 4: 35 07-Gimme The Prize
    DR12 -1.18 дБ -14.91 дБ 4: 38 08-Don\'t Lose Your Head
    DR13 -0.40 дБ -15.69 дБ 3: 32 09-Princes Of The Universe
    --------------------------------------------------------------------------------
    Количество треков: 9
    Реальные значения DR: DR13
    Частота: 192000 Гц
    Каналов: 2
    Разрядность: 24
    Битрейт: 5144 кбит/с
    Кодек: FLAC
    ================================================================================

    Время раздачи: 24x7


    Queen - A Kind Of Magic (1986) [FLAC 2.0|192/24|image + .cue|Vinyl-Rip] <Rock>
    Рейтинг →
     (голосов: 1, оценка 5/5, голосовать можно 1 раз )

    Другие торренты по теме:

  • Queen - A Kind Of Magic (1986) [FLAC 2.0|192 / 24|tracks+.cue|Vinyl-Rip] <Rock>


    • Комментарии (0):

      Информация

      Информация

        Посетители, находящиеся в группе Гости, не могут оставлять комментарии в данной новости.

        ↓ Меню




        ↓ Опрос

        Вы добавили сайт в закладки?
        Да
        Нет


        Top 10 за месяц (Музыка)

        Павел Пламенев - Неофициальный сборник песен (2014 - 2016) [MP3|192 кб / с] <русский рок, рок>

        (скачиваний: 78)
        Нейромонах Феофан - 2 альбома, 4 сингла (2015-2017) [MP3|320 Kbps] <Drum & Bass, Neurofunk>

        (скачиваний: 72)
        Кипелов - Коллекция легендарных песен (2010) [MP3|320 кб / с]<Rock> скачать через торрент бесплатно

        (скачиваний: 50)
        Чиж & Co - Коллекция легендарных песен (2014) [MP3|320 кб / с]<Rock> скачать через торрент бесплатно

        (скачиваний: 47)
        Uma2rmaH (Uma2rman, Уматурман) feat. Павло Шевчук - Не нашего мира (2018) [MP3|320 Kbps] <Pop-Rock>

        (скачиваний: 39)
        И. С. Бах (J. S. Bach) - Полное собрание произведений (Hanssler 172 CD) (2000) [MP3|320 кб / с] <Classical>

        (скачиваний: 31)
        Zaz - 4 альбома (8CD) (2010 - 2014) Дискография [FLAC|Lossless]<Nu Jazz, Chanson, Soul> скачать через торрент бесплатно

        (скачиваний: 30)
        Дима Билан - 12 альбомов, 4 сингла (2003 - 2017) [MP3|320 Kbps] <Pop>

        (скачиваний: 30)
        Юрий Визбор - Коллекция легендарных песен (2010) [MP3|320 кб / с]<Авторская песня> скачать через торрент бесплатно

        (скачиваний: 30)
        БАСТА / НоГгано / N1NT3ND0 - 12 Альбомов (2006-2015) Дискография [FLAC|tracks, image+ .cue]<Rap, Hip-Hop> скачать через торрент бесплатно

        (скачиваний: 27)