.
Авторизация | Регистрация
Хочешь лучшие торренты? Добавь свой email!
Добавить

Торрент скачать бесплатно

  • support: webmaster@btracker.org
» » VA - Это новый хит-2 (1997) [FLAC|Lossless|image + .cue]<Pop, Dance> торрент скачать бесплатно


    VA - Это новый хит-2 (1997) [FLAC|Lossless|image + .cue]<Pop, Dance> торрент скачать бесплатно

    Опубликовал: Админ | Дата: 29-05-2018, 05:00 | .torrent скачали: 1

    VA - Это новый хит-2 (1997) [FLAC|Lossless|image + .cue]&ltPop, Dance>Год: 1997
    Жанр: Pop, Dance
    Издание: Soyuz SZCD 0758-97
    Источник (релизер): eloychik ®
    Продолжительность: 01: 13: 35
    Кодек: FLAC
    Битрейт: Lossless
    Тип рипа: image + .cue

    Треклист

    01. Ноктюрн ( Ди - Джей Грув )
    02. Цветы ( Блестящие )
    03. Давай, танцуй ( Чугунный скороход )
    04. Яркий свет ( Место встречи )
    05. Московская любовь ( Старый приятель )
    06. Облако - ночь ( Буги В )
    07. 6 лет, 6 ночей ( Забытый разговор )
    08. Наше счастье ( Елена Панурова )
    09. Моя любовь ( Полиция нравов )
    10. Танцуй со мной ( Светлячки )
    11. До встречи ( Восток )
    12. Корабли любви ( A - Studio )
    13. Осень ( Тайм-аут )
    14. Па-де-де ( Классик-дэнс )
    15. Не обещай ( Ника )
    16. Подсолнух ( Павел Кашин )
    17. Летний берег ( Экзе )
    18. Лапландия ( Funtomas )
    Код: выделить все

    Exact Audio Copy V1.3 from 2. September 2016
    Отчёт EAC об извлечении, выполненном 26. мая 2018, 15:37
    Various Artists/Это новый хит - 2
    Дисковод: ASUS DRW-24D5MT Adapter: 1 ID: 0
    Режим чтения : Достоверность
    Использование точного потока : Да
    Отключение кэша аудио : Да
    Использование указателей C2 : Нет
    Коррекция смещения при чтении : 6
    Способность читать области Lead-in и Lead-out : Нет
    Заполнение пропущенных сэмплов тишиной : Да
    Удаление блоков с тишиной в начале и конце : Нет
    При вычислениях CRC использовались нулевые сэмплы : Да
    Интерфейс : Встроенный Win32-интерфейс для Win NT/2000
    Выходной формат : Пользовательский кодировщик
    Выбранный битрейт : 128 kBit/s
    Качество : Высокий
    Добавление ID3-тега : Нет
    Утилита сжатия : C:Program Files (x86)Exact Audio CopyFlacflac.exe
    Дополнительные параметры : -V -8 -T Date=%year% -T Genre=%genre% %source%
    TOC извлечённого CD
    Трек | Старт | Длительность | Начальный сектор | Конечный сектор
    ---------------------------------------------------------------------
    1 | 0:00.00 | 5:07.45 | 0 | 23069
    2 | 5:07.45 | 3:49.40 | 23070 | 40284
    3 | 8:57.10 | 4:07.65 | 40285 | 58874
    4 | 13:05.00 | 3:27.35 | 58875 | 74434
    5 | 16:32.35 | 4:05.60 | 74435 | 92869
    6 | 20:38.20 | 3:21.40 | 92870 | 107984
    7 | 23:59.60 | 4:21.05 | 107985 | 127564
    8 | 28:20.65 | 4:51.35 | 127565 | 149424
    9 | 33:12.25 | 3:31.10 | 149425 | 165259
    10 | 36:43.35 | 4:43.45 | 165260 | 186529
    11 | 41:27.05 | 3:29.70 | 186530 | 202274
    12 | 44:57.00 | 4:20.45 | 202275 | 221819
    13 | 49:17.45 | 3:15.05 | 221820 | 236449
    14 | 52:32.50 | 4:28.35 | 236450 | 256584
    15 | 57:01.10 | 3:59.35 | 256585 | 274544
    16 | 61:00.45 | 3:16.60 | 274545 | 289304
    17 | 64:17.30 | 4:33.30 | 289305 | 309809
    18 | 68:50.60 | 4:44.30 | 309810 | 331139
    Характеристики диапазона извлечения и сообщения об ошибках
    Выбранный диапазон
    Имя файла E:РаздачиNNMClub-eloychik ®Various Artists - Это новый хит-2 [NNM-CLUB.ME]Various Artists - Это новый хит - 2.wav
    Пиковый уровень 98.4 %
    Скорость извлечения 2.0 X
    Качество диапазона 100.0 %
    CRC теста 7D02222C
    CRC копии 7D02222C
    Копирование... OK
    Ошибок не произошло
    AccurateRip: сводка
    Трек 1 отсутствует в базе данных
    Трек 2 отсутствует в базе данных
    Трек 3 отсутствует в базе данных
    Трек 4 отсутствует в базе данных
    Трек 5 отсутствует в базе данных
    Трек 6 отсутствует в базе данных
    Трек 7 отсутствует в базе данных
    Трек 8 отсутствует в базе данных
    Трек 9 отсутствует в базе данных
    Трек 10 отсутствует в базе данных
    Трек 11 отсутствует в базе данных
    Трек 12 отсутствует в базе данных
    Трек 13 отсутствует в базе данных
    Трек 14 отсутствует в базе данных
    Трек 15 отсутствует в базе данных
    Трек 16 отсутствует в базе данных
    Трек 17 отсутствует в базе данных
    Трек 18 отсутствует в базе данных
    Ни одного трека нет в базе AccurateRip
    Конец отчёта
    ==== Контрольная сумма отчёта 170A6A37CE6106F92FE602053F64E7076BFA374A6B07CC84D99394AD572EDCBF ====
    Код: выделить все

    REM GENRE Pop
    REM DATE 1997
    REM DISCID 1E113F12
    REM COMMENT ExactAudioCopy v1.3
    PERFORMER Various Artists
    TITLE Это новый хит - 2
    REM COMPOSER
    FILE Various Artists - Это новый хит - 2.flac WAVE
    TRACK 01 AUDIO
    TITLE Ноктюрн
    PERFORMER Various Artists
    REM COMPOSER
    INDEX 01 00:00:00
    TRACK 02 AUDIO
    TITLE Цветы
    PERFORMER Various Artists
    REM COMPOSER
    INDEX 01 05:07:45
    TRACK 03 AUDIO
    TITLE Давай, танцуй
    PERFORMER Various Artists
    REM COMPOSER
    INDEX 01 08:57:10
    TRACK 04 AUDIO
    TITLE Яркий свет
    PERFORMER Various Artists
    REM COMPOSER
    INDEX 01 13:05:00
    TRACK 05 AUDIO
    TITLE Московская любовь
    PERFORMER Various Artists
    REM COMPOSER
    INDEX 01 16:32:35
    TRACK 06 AUDIO
    TITLE Облако - ночь
    PERFORMER Various Artists
    REM COMPOSER
    INDEX 01 20:38:20
    TRACK 07 AUDIO
    TITLE 6 лет, 6 ночей
    PERFORMER Various Artists
    REM COMPOSER
    INDEX 01 23:59:60
    TRACK 08 AUDIO
    TITLE Наше счастье
    PERFORMER Various Artists
    REM COMPOSER
    INDEX 01 28:20:65
    TRACK 09 AUDIO
    TITLE Моя любовь
    PERFORMER Various Artists
    REM COMPOSER
    INDEX 01 33:12:25
    TRACK 10 AUDIO
    TITLE Танцуй со мной
    PERFORMER Various Artists
    REM COMPOSER
    INDEX 01 36:43:35
    TRACK 11 AUDIO
    TITLE До встречи
    PERFORMER Various Artists
    REM COMPOSER
    INDEX 01 41:27:05
    TRACK 12 AUDIO
    TITLE Корабли любви
    PERFORMER Various Artists
    REM COMPOSER
    INDEX 01 44:57:00
    TRACK 13 AUDIO
    TITLE Осень
    PERFORMER Various Artists
    REM COMPOSER
    INDEX 01 49:17:45
    TRACK 14 AUDIO
    TITLE Па-де-де
    PERFORMER Various Artists
    REM COMPOSER
    INDEX 01 52:32:50
    TRACK 15 AUDIO
    TITLE Не обещай
    PERFORMER Various Artists
    REM COMPOSER
    INDEX 01 57:01:10
    TRACK 16 AUDIO
    TITLE Подсолнух
    PERFORMER Various Artists
    REM COMPOSER
    INDEX 01 61:00:45
    TRACK 17 AUDIO
    TITLE Летний берег
    PERFORMER Various Artists
    REM COMPOSER
    INDEX 01 64:17:30
    TRACK 18 AUDIO
    TITLE Лапландия
    PERFORMER Various Artists
    REM COMPOSER
    INDEX 01 68:50:60
    Код: выделить все

    -----------------------
    DON\'T MODIFY THIS FILE
    -----------------------
    PERFORMER: auCDtect Task Manager, ver. 1.6.0 RC1 build 1.6.0.1
    Copyright (c) 2008-2010 y-soft. All rights reserved
    http://y-soft.org
    ANALYZER: auCDtect: CD records authenticity detector, version 0.8.2
    Copyright (c) 2004 Oleg Berngardt. All rights reserved.
    Copyright (c) 2004 Alexander Djourik. All rights reserved.
    FILE: Various Artists - Это новый хит - 2.flac
    Size: 518271796 Hash: F094DEA40706FAE4E1FAF3920173F637 Accuracy: -m0
    Conclusion: CDDA 100%
    Signature: BEF1B28C88453565C586D059F8A99F9E7EE379C8
    YouTubeYouTube
    Время раздачи: Пн-Пт с 17: 00 до 20: 00 и по возможности


    Поглощение/вытеснение
    Только с согласия релизера

    fanDYNAMO


    VA - Это новый хит-2 (1997) [FLAC|Lossless|image + .cue]<Pop, Dance>
    Рейтинг →
     (голосов: 1, оценка 3/5, голосовать можно 1 раз )

    Другие торренты по теме:

  • VA - Самый новый хит в машину. Версия 50 / 50 (2016) [MP3|256 кб / с] <Pop, Dance>
  • Оранжевый - хит сезона / Оранжевый — новый черный / Orange Is the New Black (2014) WEBRip [720p] (Сезон 2 / Серии 1-13 из 13) NewStudio скачать через торрент бесплатно
  • Оранжевый - хит сезона / Оранжевый - новый чёрный / Orange Is the New Black (2015) WEBRip [H.264 / 720p-LQ] (сезон 3, серии 1-2 из 13) (NewStudio) (обновляемая) скачать через торрент бесплатно
  • Оранжевый - хит сезона / Оранжевый - новый чёрный / Orange Is the New Black (2015) WEBRip (сезон 3, серии 1-2 из 13) NewStudio (обновляемая) скачать через торрент бесплатно
  • VA - Весенний марафон № 167 / Видеоклипы (Новый Dance Хит Парад) (2015) WEBRip [H.264 / 1080p-LQ] скачать через торрент бесплатно
  • Оранжевый - хит сезона / Оранжевый - новый чёрный / Orange Is the New Black (2016) WEBRip (сезон 4, серии 1-3 из 13) NeStudio (обновляемая)
  • VA - Новый русский хит 2 (2017) [MP3|320 Kbps] <Pop>


    • Комментарии (0):

      Информация

      Информация

        Посетители, находящиеся в группе Гости, не могут оставлять комментарии в данной новости.

        ↓ Меню




        ↓ Опрос

        Вы добавили сайт в закладки?
        Да
        Нет


        Top 10 за месяц (Музыка)

        Павел Пламенев - Неофициальный сборник песен (2014 - 2016) [MP3|192 кб / с] <русский рок, рок>

        (скачиваний: 72)
        Нейромонах Феофан - 2 альбома, 4 сингла (2015-2017) [MP3|320 Kbps] <Drum & Bass, Neurofunk>

        (скачиваний: 69)
        Кипелов - Коллекция легендарных песен (2010) [MP3|320 кб / с]<Rock> скачать через торрент бесплатно

        (скачиваний: 48)
        Чиж & Co - Коллекция легендарных песен (2014) [MP3|320 кб / с]<Rock> скачать через торрент бесплатно

        (скачиваний: 45)
        Uma2rmaH (Uma2rman, Уматурман) feat. Павло Шевчук - Не нашего мира (2018) [MP3|320 Kbps] <Pop-Rock>

        (скачиваний: 37)
        И. С. Бах (J. S. Bach) - Полное собрание произведений (Hanssler 172 CD) (2000) [MP3|320 кб / с] <Classical>

        (скачиваний: 31)
        Юрий Визбор - Коллекция легендарных песен (2010) [MP3|320 кб / с]<Авторская песня> скачать через торрент бесплатно

        (скачиваний: 30)
        Дима Билан - 12 альбомов, 4 сингла (2003 - 2017) [MP3|320 Kbps] <Pop>

        (скачиваний: 29)
        Zaz - 4 альбома (8CD) (2010 - 2014) Дискография [FLAC|Lossless]<Nu Jazz, Chanson, Soul> скачать через торрент бесплатно

        (скачиваний: 28)
        БАСТА / НоГгано / N1NT3ND0 - 12 Альбомов (2006-2015) Дискография [FLAC|tracks, image+ .cue]<Rap, Hip-Hop> скачать через торрент бесплатно

        (скачиваний: 27)