.
Авторизация | Регистрация
Хочешь лучшие торренты? Добавь свой email!
Добавить

Торрент скачать бесплатно

  • support: webmaster@btracker.org
» » VA - Заяц Рор Шоу-2 (1996) [FLAC|Lossless|image + .cue]<Pop, Dance> торрент скачать бесплатно


    VA - Заяц Рор Шоу-2 (1996) [FLAC|Lossless|image + .cue]<Pop, Dance> торрент скачать бесплатно

    Опубликовал: Админ | Дата: 29-05-2018, 05:00 | .torrent скачали: 0

    VA - Заяц Рор Шоу-2 (1996) [FLAC|Lossless|image + .cue]&ltPop, Dance>Год: 1996
    Жанр: Pop, Dance
    Издание: Заяц Records ZR CD 96002-2
    Источник (релизер): eloychik ®
    Продолжительность: 01: 07: 59
    Кодек: FLAC
    Битрейт: Lossless
    Тип рипа: image + .cue

    Треклист

    01.Привет от Индиры Ганди ( Л.И.Брежнев )
    02.Родина Мая, Биларусия/Канэшешна, Вдую ( DJ Хачик Special Mix )
    03. Fuck me, Колобок ( М.С.Гнил )
    04. Say You\'ll Never ( House Division )
    05 .Про Заек ( Progessive Зайки )
    06. Лысая песня ( Анжела Бабич ) )
    07. Пионерская Мастурбационная ( Мутик Писик Projeckt )
    08. Снег ( Z-Trance feft Scream )
    09. Да Мне Чайки ( DJ Ацетон )
    10. Jobarь 4\'09
    11. Черепаший House ( Давай, Давай! )
    12. Love Theme ( Николай Зайцев )
    Код: выделить все

    Exact Audio Copy V1.3 from 2. September 2016
    Отчёт EAC об извлечении, выполненном 27. мая 2018, 18:35
    Various Artists/Заяц Рор Шоу - 2
    Дисковод: ASUS DRW-24D5MT Adapter: 1 ID: 0
    Режим чтения : Достоверность
    Использование точного потока : Да
    Отключение кэша аудио : Да
    Использование указателей C2 : Нет
    Коррекция смещения при чтении : 6
    Способность читать области Lead-in и Lead-out : Нет
    Заполнение пропущенных сэмплов тишиной : Да
    Удаление блоков с тишиной в начале и конце : Нет
    При вычислениях CRC использовались нулевые сэмплы : Да
    Интерфейс : Встроенный Win32-интерфейс для Win NT/2000
    Выходной формат : Пользовательский кодировщик
    Выбранный битрейт : 128 kBit/s
    Качество : Высокий
    Добавление ID3-тега : Нет
    Утилита сжатия : C:Program Files (x86)Exact Audio CopyFlacflac.exe
    Дополнительные параметры : -V -8 -T Date=%year% -T Genre=%genre% %source%
    TOC извлечённого CD
    Трек | Старт | Длительность | Начальный сектор | Конечный сектор
    ---------------------------------------------------------------------
    1 | 0:00.32 | 4:32.45 | 32 | 20476
    2 | 4:33.02 | 7:17.05 | 20477 | 53256
    3 | 11:50.07 | 3:57.15 | 53257 | 71046
    4 | 15:47.22 | 6:33.53 | 71047 | 100574
    5 | 22:21.00 | 5:16.15 | 100575 | 124289
    6 | 27:37.15 | 4:31.60 | 124290 | 144674
    7 | 32:09.00 | 4:12.60 | 144675 | 163634
    8 | 36:21.60 | 7:24.70 | 163635 | 197004
    9 | 43:46.55 | 5:01.55 | 197005 | 219634
    10 | 48:48.35 | 4:14.22 | 219635 | 238706
    11 | 53:02.57 | 5:12.28 | 238707 | 262134
    12 | 58:15.10 | 9:44.45 | 262135 | 305979
    Характеристики диапазона извлечения и сообщения об ошибках
    Выбранный диапазон
    Имя файла E:РаздачиNNMClub-eloychik ®Various Artists - Заяц Рор Шоу - 2 [NNM-CLUB.ME]Various Artists - Заяц Рор Шоу - 2.wav
    Пиковый уровень 99.9 %
    Скорость извлечения 2.0 X
    Качество диапазона 100.0 %
    CRC теста 25151A75
    CRC копии 25151A75
    Копирование... OK
    Ошибок не произошло
    AccurateRip: сводка
    Трек 1 точность не определена (достоверность 2) [37B54663], AccurateRip вернул [6BAA1156] (AR v2)
    Трек 2 точность не определена (достоверность 2) [D3A706D0], AccurateRip вернул [E416F522] (AR v2)
    Трек 3 точность не определена (достоверность 2) [0408EFFE], AccurateRip вернул [599F0F2C] (AR v2)
    Трек 4 точность не определена (достоверность 2) [8E65A194], AccurateRip вернул [1F275EC0] (AR v2)
    Трек 5 точность не определена (достоверность 2) [0354B5A7], AccurateRip вернул [22CA7DE8] (AR v2)
    Трек 6 точность не определена (достоверность 2) [5200055C], AccurateRip вернул [8C12B638] (AR v2)
    Трек 7 точность не определена (достоверность 2) [390BAB6F], AccurateRip вернул [D68D643F] (AR v2)
    Трек 8 точность не определена (достоверность 2) [2AFA480E], AccurateRip вернул [65AF4E29] (AR v2)
    Трек 9 точность не определена (достоверность 2) [5905DC75], AccurateRip вернул [99CCC342] (AR v2)
    Трек 10 точность не определена (достоверность 2) [DCD6EA50], AccurateRip вернул [842D6026] (AR v2)
    Трек 11 точность не определена (достоверность 2) [8208AC29], AccurateRip вернул [C3CFD651] (AR v2)
    Трек 12 точность не определена (достоверность 2) [25DE1DD1], AccurateRip вернул [985D75E9] (AR v2)
    Ни один трек не прошёл проверки на точность
    В вашей базе может быть иной вариант штамповки диска
    Конец отчёта
    ==== Контрольная сумма отчёта 78233B5FF586AC379FBD1E1EE08EE9A78D2207B5AB5F2CA3A424F56184B2CAC0 ====
    Код: выделить все

    REM GENRE Pop
    REM DATE 1996
    REM DISCID B30FEF0C
    REM COMMENT ExactAudioCopy v1.3
    PERFORMER Various Artists
    TITLE Заяц Рор Шоу - 2
    REM COMPOSER
    FILE Various Artists - Заяц Рор Шоу - 2.flac WAVE
    TRACK 01 AUDIO
    TITLE Привет от Индиры Ганди
    PERFORMER Various Artists
    REM COMPOSER
    INDEX 00 00:00:00
    INDEX 01 00:00:32
    TRACK 02 AUDIO
    TITLE Родина Мая, Биларусия/ Канешна, Вдую
    PERFORMER Various Artists
    REM COMPOSER
    INDEX 01 04:33:02
    TRACK 03 AUDIO
    TITLE Fuck Me, Колобок
    PERFORMER Various Artists
    REM COMPOSER
    INDEX 01 11:50:07
    TRACK 04 AUDIO
    TITLE Say You\'ll Never
    PERFORMER Various Artists
    REM COMPOSER
    INDEX 01 15:47:22
    TRACK 05 AUDIO
    TITLE Про Заек
    PERFORMER Various Artists
    REM COMPOSER
    INDEX 01 22:21:00
    TRACK 06 AUDIO
    TITLE Лысая песня
    PERFORMER Various Artists
    REM COMPOSER
    INDEX 01 27:37:15
    TRACK 07 AUDIO
    TITLE Пионерская Мастурбационная
    PERFORMER Various Artists
    REM COMPOSER
    INDEX 01 32:09:00
    TRACK 08 AUDIO
    TITLE Снег
    PERFORMER Various Artists
    REM COMPOSER
    INDEX 01 36:21:60
    TRACK 09 AUDIO
    TITLE Да Мне Чайки
    PERFORMER Various Artists
    REM COMPOSER
    INDEX 01 43:46:55
    TRACK 10 AUDIO
    TITLE Jobarь
    PERFORMER Various Artists
    REM COMPOSER
    INDEX 01 48:48:35
    TRACK 11 AUDIO
    TITLE Черепаший House
    PERFORMER Various Artists
    REM COMPOSER
    INDEX 01 53:02:57
    TRACK 12 AUDIO
    TITLE Love Theme
    PERFORMER Various Artists
    REM COMPOSER
    INDEX 01 58:15:10
    Код: выделить все

    -----------------------
    DON\'T MODIFY THIS FILE
    -----------------------
    PERFORMER: auCDtect Task Manager, ver. 1.6.0 RC1 build 1.6.0.1
    Copyright (c) 2008-2010 y-soft. All rights reserved
    http://y-soft.org
    ANALYZER: auCDtect: CD records authenticity detector, version 0.8.2
    Copyright (c) 2004 Oleg Berngardt. All rights reserved.
    Copyright (c) 2004 Alexander Djourik. All rights reserved.
    FILE: Various Artists - Заяц Рор Шоу - 2.flac
    Size: 469325978 Hash: 3A317D31F077739D66AD192ED2105CD9 Accuracy: -m0
    Conclusion: CDDA 100%
    Signature: D1B64700E9D4C2DFE99E6AED5738889AB7B50D96
    YouTube
    Время раздачи: Пн-Пт с 17: 00 до 20: 00 и по возможности


    Поглощение/вытеснение
    Только с согласия релизера

    fanDYNAMO


    VA - Заяц Рор Шоу-2 (1996) [FLAC|Lossless|image + .cue]<Pop, Dance>
    Рейтинг →
     (голосов: 1, оценка 4/5, голосовать можно 1 раз )

    Другие торренты по теме:

  • VA - Заяц Рор Шоу-3 (1997) [FLAC|Lossless|image + .cue]<Pop, Dance>


    • Комментарии (0):

      Информация

      Информация

        Посетители, находящиеся в группе Гости, не могут оставлять комментарии в данной новости.

        ↓ Меню




        ↓ Опрос

        Вы добавили сайт в закладки?
        Да
        Нет


        Top 10 за месяц (Музыка)

        Павел Пламенев - Неофициальный сборник песен (2014 - 2016) [MP3|192 кб / с] <русский рок, рок>

        (скачиваний: 72)
        Нейромонах Феофан - 2 альбома, 4 сингла (2015-2017) [MP3|320 Kbps] <Drum & Bass, Neurofunk>

        (скачиваний: 70)
        Кипелов - Коллекция легендарных песен (2010) [MP3|320 кб / с]<Rock> скачать через торрент бесплатно

        (скачиваний: 49)
        Чиж & Co - Коллекция легендарных песен (2014) [MP3|320 кб / с]<Rock> скачать через торрент бесплатно

        (скачиваний: 46)
        Uma2rmaH (Uma2rman, Уматурман) feat. Павло Шевчук - Не нашего мира (2018) [MP3|320 Kbps] <Pop-Rock>

        (скачиваний: 37)
        И. С. Бах (J. S. Bach) - Полное собрание произведений (Hanssler 172 CD) (2000) [MP3|320 кб / с] <Classical>

        (скачиваний: 31)
        Юрий Визбор - Коллекция легендарных песен (2010) [MP3|320 кб / с]<Авторская песня> скачать через торрент бесплатно

        (скачиваний: 30)
        Zaz - 4 альбома (8CD) (2010 - 2014) Дискография [FLAC|Lossless]<Nu Jazz, Chanson, Soul> скачать через торрент бесплатно

        (скачиваний: 30)
        Дима Билан - 12 альбомов, 4 сингла (2003 - 2017) [MP3|320 Kbps] <Pop>

        (скачиваний: 29)
        БАСТА / НоГгано / N1NT3ND0 - 12 Альбомов (2006-2015) Дискография [FLAC|tracks, image+ .cue]<Rap, Hip-Hop> скачать через торрент бесплатно

        (скачиваний: 27)