.
Авторизация | Регистрация
Хочешь лучшие торренты? Добавь свой email!
Добавить

Торрент скачать бесплатно

  • support: webmaster@btracker.org
» » Lake of Tears - Illwill (2011) Japanese Edition [FLAC|Lossless|image + .cue] <Goth Rock, Doom Metal> торрент скачать бесплатно


    Lake of Tears - Illwill (2011) Japanese Edition [FLAC|Lossless|image + .cue] <Goth Rock, Doom Metal> торрент скачать бесплатно

    Опубликовал: Админ | Дата: 4-04-2018, 05:00 | .torrent скачали: 1

    Lake of Tears - Illwill (2011) Japanese Edition [FLAC|Lossless|image + .cue] &ltGoth Rock, Doom Metal>Жанр: Goth Rock, Doom Metal
    Издание: AFM Records ‎– XQAN-1081
    Продолжительность: 00: 57: 38
    Источник (релизер): ungern666
    Кодек: FLAC
    Битрейт: Lossless
    Тип рипа: image + .cue
    Наличие сканов: Да, полные


    Треклист

    01. Floating In Darkness (3: 15)
    02.Illwill (4: 21)
    03. The Hating (4: 39)
    04. U.N.S.A.N.E. (4: 52)
    05. House Of The Setting Sun (5: 39)
    06. Behind The Green Door (4: 00)
    07. Parasites (2: 56)
    08. Out Of Control (2: 57)
    09. Taste Of Hell (3: 48)
    10. Midnight Madness (4: 09)
    11. Last Purple Sky (6: 02)
    12. Children Of The Grey (4: 35)
    13. Planet Of The Penguins (6: 26)
    Код: выделить все

    Exact Audio Copy V1.1 from 23. June 2015
    EAC extraction logfile from 9. April 2017, 20:31
    Lake Of Tears/Illwill (Japan Edition)
    Used drive : HP DVD Writer 1170d Adapter: 1 ID: 1
    Read mode : Secure
    Utilize accurate stream : Yes
    Defeat audio cache : Yes
    Make use of C2 pointers : No
    Read offset correction : 6
    Overread into Lead-In and Lead-Out : No
    Fill up missing offset samples with silence : Yes
    Delete leading and trailing silent blocks : No
    Null samples used in CRC calculations : Yes
    Used interface : Native Win32 interface for Win NT 2000
    Used output format : User Defined Encoder
    Selected bitrate : 1024 kBit/s
    Quality : High
    Add ID3 tag : No
    Command line compressor : C:Program Files (x86)Exact Audio CopyFlacflac.exe
    Additional command line options : -V -8 -T Date=%year% -T Genre=%genre% %source%
    TOC of the extracted CD
    Track | Start | Length | Start sector | End sector
    ---------------------------------------------------------
    1 | 0:00.00 | 3:15.18 | 0 | 14642
    2 | 3:15.18 | 4:20.46 | 14643 | 34188
    3 | 7:35.64 | 4:38.40 | 34189 | 55078
    4 | 12:14.29 | 4:52.22 | 55079 | 77000
    5 | 17:06.51 | 5:39.16 | 77001 | 102441
    6 | 22:45.67 | 3:59.73 | 102442 | 120439
    7 | 26:45.65 | 2:56.28 | 120440 | 133667
    8 | 29:42.18 | 2:56.43 | 133668 | 146910
    9 | 32:38.61 | 3:47.64 | 146911 | 163999
    10 | 36:26.50 | 4:08.51 | 164000 | 182650
    11 | 40:35.26 | 6:02.31 | 182651 | 209831
    12 | 46:37.57 | 4:34.52 | 209832 | 230433
    13 | 51:12.34 | 6:25.70 | 230434 | 259378
    Range status and errors
    Selected range
    Filename C:EACUngern666Lake Of Tears - Illwill (Japan Edition).wav
    Peak level 97.7 %
    Extraction speed 5.8 X
    Range quality 100.0 %
    Test CRC 7C403173
    Copy CRC 7C403173
    Copy OK
    No errors occurred
    AccurateRip summary
    Track 1 accurately ripped (confidence 1) [13815A5D] (AR v2)
    Track 2 accurately ripped (confidence 1) [D074D437] (AR v2)
    Track 3 accurately ripped (confidence 1) [3A07730E] (AR v2)
    Track 4 accurately ripped (confidence 1) [0B5E34D8] (AR v2)
    Track 5 accurately ripped (confidence 1) [E92C1559] (AR v2)
    Track 6 accurately ripped (confidence 1) [CC49B566] (AR v2)
    Track 7 accurately ripped (confidence 1) [2ABBE99D] (AR v2)
    Track 8 accurately ripped (confidence 1) [32B9DA28] (AR v2)
    Track 9 accurately ripped (confidence 1) [1C2518C8] (AR v2)
    Track 10 accurately ripped (confidence 1) [B5DCDE45] (AR v2)
    Track 11 accurately ripped (confidence 1) [87490225] (AR v2)
    Track 12 accurately ripped (confidence 1) [3824C918] (AR v2)
    Track 13 accurately ripped (confidence 1) [A8B9C681] (AR v2)
    All tracks accurately ripped
    End of status report
    ---- CUETools DB Plugin V2.1.6
    [CTDB TOCID: eOkIi0oq3JHmYnsH.EMd6y9v1kE-] found
    Submit result: eOkIi0oq3JHmYnsH.EMd6y9v1kE- has been confirmed
    Track | CTDB Status
    1 | (1/1) Accurately ripped
    2 | (1/1) Accurately ripped
    3 | (1/1) Accurately ripped
    4 | (1/1) Accurately ripped
    5 | (1/1) Accurately ripped
    6 | (1/1) Accurately ripped
    7 | (1/1) Accurately ripped
    8 | (1/1) Accurately ripped
    9 | (1/1) Accurately ripped
    10 | (1/1) Accurately ripped
    11 | (1/1) Accurately ripped
    12 | (1/1) Accurately ripped
    13 | (1/1) Accurately ripped
    ==== Log checksum 8B8FE7E1B0D5B7D6D8DFC6C57740AAA5B722A8E4EE299FBC57A34FC7D0F16B14 ====
    Код: выделить все

    REM DATE 2011
    REM DISCID CD0D820D
    REM COMMENT ExactAudioCopy v1.1
    PERFORMER Lake Of Tears
    TITLE Illwill (Japan Edition)
    FILE Lake Of Tears - Illwill (Japan Edition).flac WAVE
    TRACK 01 AUDIO
    TITLE Floating In Darkness
    PERFORMER Lake Of Tears
    INDEX 01 00:00:00
    TRACK 02 AUDIO
    TITLE Illwill
    PERFORMER Lake Of Tears
    INDEX 00 03:14:18
    INDEX 01 03:15:18
    TRACK 03 AUDIO
    TITLE The Hating
    PERFORMER Lake Of Tears
    INDEX 00 07:34:35
    INDEX 01 07:35:64
    TRACK 04 AUDIO
    TITLE U.N.S.A.N.E.
    PERFORMER Lake Of Tears
    INDEX 00 12:13:29
    INDEX 01 12:14:29
    TRACK 05 AUDIO
    TITLE House Of The Setting Sun
    PERFORMER Lake Of Tears
    INDEX 00 17:05:37
    INDEX 01 17:06:51
    TRACK 06 AUDIO
    TITLE Behind The Green Door
    PERFORMER Lake Of Tears
    INDEX 00 22:44:32
    INDEX 01 22:45:67
    TRACK 07 AUDIO
    TITLE Parasites
    PERFORMER Lake Of Tears
    INDEX 00 26:44:08
    INDEX 01 26:45:65
    TRACK 08 AUDIO
    TITLE Out Of Control
    PERFORMER Lake Of Tears
    INDEX 00 29:41:10
    INDEX 01 29:42:18
    TRACK 09 AUDIO
    TITLE Taste Of Hell
    PERFORMER Lake Of Tears
    INDEX 00 32:37:50
    INDEX 01 32:38:61
    TRACK 10 AUDIO
    TITLE Midnight Madness
    PERFORMER Lake Of Tears
    INDEX 00 36:25:35
    INDEX 01 36:26:50
    TRACK 11 AUDIO
    TITLE Last Purple Sky
    PERFORMER Lake Of Tears
    INDEX 00 40:35:11
    INDEX 01 40:35:26
    TRACK 12 AUDIO
    TITLE Children Of The Grey
    PERFORMER Lake Of Tears
    INDEX 01 46:37:57
    TRACK 13 AUDIO
    TITLE Planet Of The Penguins
    PERFORMER Lake Of Tears
    INDEX 00 51:11:20
    INDEX 01 51:12:34
    Код: выделить все

    -----------------------
    DON\'T MODIFY THIS FILE
    -----------------------
    PERFORMER: auCDtect Task Manager, ver. 1.6.0 RC1 build 1.6.0.1
    Copyright (c) 2008-2010 y-soft. All rights reserved
    http://y-soft.org
    ANALYZER: auCDtect: CD records authenticity detector, version 0.8.2
    Copyright (c) 2004 Oleg Berngardt. All rights reserved.
    Copyright (c) 2004 Alexander Djourik. All rights reserved.
    FILE: Lake Of Tears - Illwill (Japan Edition).flac
    Size: 419037331 Hash: 191BE82CF558360A66C262705EC4F051 Accuracy: -m0
    Conclusion: CDDA 100%
    Signature: A0241B468E9AC7AF3A996CD415F6265D4DA7BD96


    Lake of Tears - Illwill (2011) Japanese Edition [FLAC|Lossless|image + .cue] <Goth Rock, Doom Metal>
    Рейтинг →
     (голосов: 1, оценка 5/5, голосовать можно 1 раз )

    Другие торренты по теме:

  • Lake of Tears - Headstones (1995) Japanese Edition [FLAC|Lossless|image + .cue] <Goth Rock, Doom Metal>
  • Lake of Tears - Forever Autumn (1999) Japanese Edition [FLAC|Lossless|image + .cue] <Goth Rock, Doom Metal>


    • Комментарии (0):

      Информация

      Информация

        Посетители, находящиеся в группе Гости, не могут оставлять комментарии в данной новости.

        ↓ Меню




        ↓ Опрос

        Вы добавили сайт в закладки?
        Да
        Нет


        Top 10 за месяц (Музыка)

        Павел Пламенев - Неофициальный сборник песен (2014 - 2016) [MP3|192 кб / с] <русский рок, рок>

        (скачиваний: 70)
        Нейромонах Феофан - 2 альбома, 4 сингла (2015-2017) [MP3|320 Kbps] <Drum & Bass, Neurofunk>

        (скачиваний: 67)
        Кипелов - Коллекция легендарных песен (2010) [MP3|320 кб / с]<Rock> скачать через торрент бесплатно

        (скачиваний: 47)
        Чиж & Co - Коллекция легендарных песен (2014) [MP3|320 кб / с]<Rock> скачать через торрент бесплатно

        (скачиваний: 44)
        Uma2rmaH (Uma2rman, Уматурман) feat. Павло Шевчук - Не нашего мира (2018) [MP3|320 Kbps] <Pop-Rock>

        (скачиваний: 36)
        И. С. Бах (J. S. Bach) - Полное собрание произведений (Hanssler 172 CD) (2000) [MP3|320 кб / с] <Classical>

        (скачиваний: 31)
        Юрий Визбор - Коллекция легендарных песен (2010) [MP3|320 кб / с]<Авторская песня> скачать через торрент бесплатно

        (скачиваний: 30)
        Дима Билан - 12 альбомов, 4 сингла (2003 - 2017) [MP3|320 Kbps] <Pop>

        (скачиваний: 29)
        Zaz - 4 альбома (8CD) (2010 - 2014) Дискография [FLAC|Lossless]<Nu Jazz, Chanson, Soul> скачать через торрент бесплатно

        (скачиваний: 28)
        БАСТА / НоГгано / N1NT3ND0 - 12 Альбомов (2006-2015) Дискография [FLAC|tracks, image+ .cue]<Rap, Hip-Hop> скачать через торрент бесплатно

        (скачиваний: 27)